Легион / Casshern (2004) BDRip 720p | P2

 
Автор Сообщение

sergej644 ®

Пол:

Стаж: 4 года 11 месяцев

Сообщений: 6042

Откуда: Soviet Union



Награды: Нет

Торрент-статистика

Создавать темы 04-Янв-2016 21:33

[Цитировать]

Информация о фильме
Название: Легион
Оригинальное название: Casshern
Год выхода: 2004
Жанр: фантастика, боевик
Режиссер: Казуаки Кирия
В ролях: Юсукэ Исейа, Кумико Асо, Акира Тэрао, Канако Хигути, Фумиё Кохината, Хироюки Миясако, Маюми Сэда, Дзюн Канамэ, Хидэтоси Нисидзима, Мицухиро Оикава
Описание: В далеком будущем Азия стала центром мировой экономики. Полицейские оккупационные власти руководят странами Евразии, жестоко подавляя любые попытки сопротивления. На далеких фронтах не утихает война, природные ресурсы на исходе, и даже в мирных городах Японии лютуют страшные болезни.
В связи с возрастающим уровнем смертности населения, правительство решает одобрить новый проект доктора Азумы, лучшего специалиста в области генной инженерии. Суть эксперимента предельно проста — выращивать любые человеческие органы и части тел, и пересаживать их людям в случае надобности. Но проект завершается неудачей — выращенные Азумой тела оживают! Армия клонов развязывает войну против своих же создателей. У человечества остается лишь одна надежда на спасение: Тэтсио — сын доктора Азумы.
Погибший на войне, и вернувшийся к жизни благодаря эксперименту отца, Тэтсио наделен необычайной силой, а его тело заключено в особый сверхпрочный скафандр, что делает его практически неуязвимым…

Страна: Япония
Продолжительность: 02:22:19
Перевод: Перевод: профессиональный двухголосый (R5)
Субтитры: русские, английские, итальянские
Оригинальная аудиодорожка: японский
Файл
Кодек: x264
Качество: BDRip 720p (EbP)
Видео: 1280x536 | 2.40:1 | 7459 Kbps | 23.976 fps
Аудио 1: Russian | AC-3 | 384 Kbps | 5.1 | 48.0 KHz - профессиональный двухголосый (R5)
Аудио 2: Japanese | AC-3 | 448 Kbps | 5.1 | 48.0 KHz

Скриншоты

MediaInfo

General
Unique ID : 197368781501987445141045283542806391845 (0x947BD83A355AA704A031BBBE9C596C25)
Complete name : Casshern 2004 Uncut 720p BluRay x264-EbP.mkv
Format : Matroska
Format version : Version 4 / Version 2
File size : 8.40 GiB
Duration : 2h 22mn
Overall bit rate : 8 452 Kbps
Encoded date : UTC 2014-01-03 17:07:06
Writing application : mkvmerge v6.6.0 ('The Edge Of The In Between') built on Dec 1 2013 17:55:00
Writing library : libebml v1.3.0 + libmatroska v1.4.1
Video
ID : 1
Format : AVC
Format/Info : Advanced Video Codec
Format profile : High@L4.1
Format settings, CABAC : Yes
Format settings, ReFrames : 9 frames
Codec ID : V_MPEG4/ISO/AVC
Duration : 2h 22mn
Bit rate : 7 452 Kbps
Width : 1 280 pixels
Height : 536 pixels
Display aspect ratio : 2.40:1
Frame rate mode : Constant
Frame rate : 23.976 fps
Color space : YUV
Chroma subsampling : 4:2:0
Bit depth : 8 bits
Scan type : Progressive
Bits/(Pixel*Frame) : 0.453
Stream size : 7.41 GiB (88%)
Writing library : x264 core 119 r2106 07efeb4
Encoding settings : cabac=1 / ref=9 / deblock=1:-3:-3 / analyse=0x3:0x113 / me=tesa / subme=11 / psy=1 / psy_rd=1.00:0.00 / mixed_ref=1 / me_range=16 / chroma_me=1 / trellis=2 / 8x8dct=1 / cqm=0 / deadzone=21,11 / fast_pskip=0 / chroma_qp_offset=-2 / threads=12 / sliced_threads=0 / nr=0 / decimate=0 / interlaced=0 / bluray_compat=0 / constrained_intra=0 / bframes=7 / b_pyramid=2 / b_adapt=2 / b_bias=0 / direct=3 / weightb=1 / open_gop=0 / weightp=2 / keyint=250 / keyint_min=23 / scenecut=40 / intra_refresh=0 / rc=crf / mbtree=0 / crf=17.0 / qcomp=0.60 / qpmin=0 / qpmax=69 / qpstep=4 / ip_ratio=1.40 / pb_ratio=1.30 / aq=1:0.90
Language : Japanese
Default : Yes
Forced : No
Matrix coefficients : BT.709
Audio #1
ID : 2
Format : AC-3
Format/Info : Audio Coding 3
Mode extension : CM (complete main)
Format settings, Endianness : Big
Codec ID : A_AC3
Duration : 2h 22mn
Bit rate mode : Constant
Bit rate : 384 Kbps
Channel count : 6 channels
Channel positions : Front: L C R, Side: L R, LFE
Sampling rate : 48.0 KHz
Bit depth : 16 bits
Compression mode : Lossy
Stream size : 391 MiB (5%)
Language : Russian
Default : Yes
Forced : No
Audio #2
ID : 3
Format : AC-3
Format/Info : Audio Coding 3
Mode extension : CM (complete main)
Format settings, Endianness : Big
Codec ID : A_AC3
Duration : 2h 22mn
Bit rate mode : Constant
Bit rate : 448 Kbps
Channel count : 6 channels
Channel positions : Front: L C R, Side: L R, LFE
Sampling rate : 48.0 KHz
Bit depth : 16 bits
Compression mode : Lossy
Stream size : 456 MiB (5%)
Language : Japanese
Default : No
Forced : No
Text #1
ID : 4
Format : UTF-8
Codec ID : S_TEXT/UTF8
Codec ID/Info : UTF-8 Plain Text
Language : Russian
Default : No
Forced : No
Text #2
ID : 5
Format : UTF-8
Codec ID : S_TEXT/UTF8
Codec ID/Info : UTF-8 Plain Text
Language : English
Default : No
Forced : No
Text #3
ID : 6
Format : UTF-8
Codec ID : S_TEXT/UTF8
Codec ID/Info : UTF-8 Plain Text
Language : Italian
Default : No
Forced : No
Menu
00:00:00.000 : :00:00:00.000
00:05:17.067 : :00:05:17.067
00:07:55.725 : :00:07:55.725
00:09:34.574 : :00:09:34.574
00:11:25.518 : :00:11:25.518
00:14:33.122 : :00:14:33.122
00:21:06.682 : :00:21:06.682
00:27:23.392 : :00:27:23.392
00:32:05.382 : :00:32:05.382
00:37:31.749 : :00:37:31.749
00:40:06.195 : :00:40:06.195
00:44:32.336 : :00:44:32.336
00:49:23.752 : :00:49:23.752
00:52:00.284 : :00:52:00.284
00:58:38.598 : :00:58:38.598
01:05:20.166 : :01:05:20.166
01:09:20.782 : :01:09:20.782
01:14:18.621 : :01:14:18.621
01:22:29.653 : :01:22:29.653
01:26:34.439 : :01:26:34.439
01:29:16.142 : :01:29:16.142
01:36:32.578 : :01:36:32.578
01:39:04.480 : :01:39:04.480
01:43:29.161 : :01:43:29.161
01:45:17.061 : :01:45:17.061
01:50:44.179 : :01:50:44.179
01:56:23.435 : :01:56:23.435
02:02:35.974 : :02:02:35.974
02:07:41.863 : :02:07:41.863
02:14:18.175 : :02:14:18.175
[Профиль] [ЛС]
Показать сообщения:    

Текущее время: Сегодня 10:34

Часовой пояс: GMT



Вы не можете начинать темы
Вы не можете отвечать на сообщения
Вы не можете редактировать свои сообщения
Вы не можете удалять свои сообщения
Вы не можете голосовать в опросах
Вы не можете прикреплять файлы к сообщениям
Вы не можете скачивать файлы