Легионер / Legionnaire (1998) BDRip 1080p by msltel | 2 x P, P2, 3 x A, L1

 
Автор Сообщение

sergej644 ®

Пол:

Стаж: 4 года 11 месяцев

Сообщений: 6046

Откуда: Soviet Union



Награды: Нет

Торрент-статистика

Создавать темы 04-Мар-2015 16:05

[Цитировать]

Год выпуска: 1998
Страна: США
Жанр: боевик, драма, приключения, военный
Продолжительность: 01:38:29
Перевод: профессиональный многоголосый, профессиональный двухголосый, авторский, закадровый одноголосый
Субтитры: русские, английские, французские (все отдельно)
Режиссёр: Питер МакДональд
В ролях: Жан-Клод Ван Дамм, Адевале Акиннуойе-Агбадже, Стивен Беркофф, Николас Фэррел, Джим Картер, Ана Софренович, Даниэль Кальтаджироне, Джозеф Лонг, Марио Калли, Джо Монтана, Ким Ромер, Андерс Питер Бро, Пол Кинмен, Винсент Пикеринг, Такис Триггелис, Том Делмар, Дэвид Хеймен, Роб Каман, Дерек Лиа, Энди Смарт, Пилли Де Висенте, Келли Шонесси, Амрани Ханфайн, Камель Крифа, Чарльз Вуд, Кристал Аллен, Эмма Бордман, Дида Диафат, Филип Мерфи, Ношер Пауэлл, Чло Тринд
Описание: Профессиональный боксёр Ален Лефевр по указанию босса местной мафии должен проиграть свой очередной бой. Но у Лефевра другие планы..

Качество: BDRip 1080p Сравнение с исходником
Формат: MKV
Видео кодек: H.264
Аудио кодек: AC3, DTS
Видео: 9654 Кбит/с, 1920x818, 24 кадра/с, 0.256 bpp
Аудио 1: русский, AC3, 384 kbps, 6 ch, 48 kHz [профессиональный многоголосый, ОРТ]
Аудио 2: русский, AC3, 448 kbps, 6 ch, 48 kHz [профессиональный двухголосый]
Аудио 3: русский, DTS, 1509 kbps, 2 ch, 48 kHz [авторский, Сергей Визгунов]
Аудио 4: русский, DTS, 1509 kbps, 2 ch, 48 kHz [авторский, Андрей Гаврилов]
Аудио 5: русский, AC3, 192 kbps, 2 ch, 48 kHz [авторский, Михаил Яроцкий]
Субтитры: русские (форсированные)
Отдельные файлы
Аудио: русский, AC3, 192 kbps, 2 ch, 48 kHz [профессиональный многоголосый, ТВЦ]
Аудио: русский, AC3, 192 kbps, 2 ch, 48 kHz [авторский, Сергей Визгунов]
Аудио: русский, AC3, 192 kbps, 2 ch, 48 kHz [авторский, Андрей Гаврилов]
Аудио: русский, AC3, 192 kbps, 2 ch, 48 kHz [одноголосый закадровый]
Аудио: английский, DTS, 1509 kbps, 2 ch, 48 kHz [оригинал]
Имеются неименованные главы/чаптеры.

Кванты и MediaInfo

frame I:1063 Avg QP:18.04 size:148172
frame P:28467 Avg QP:18.88 size: 82463
frame B:112278 Avg QP:20.72 size: 43014
Общее
Полное имя : D:VideoLegioner.1998.BDRip.1080pLegioner.1998.AVO.rus.А.Гаврилов.ac3
Формат : AC-3
Формат/Информация : Audio Coding 3
Размер файла : 135 Мбайт
Продолжительность : 1 ч. 38 м.
Режим общего битрейта : Постоянный
Общий поток : 192 Кбит/сек
Аудио
Формат : AC-3
Формат/Информация : Audio Coding 3
Расширение режима : CM (complete main)
Параметр Endianness формата : Big
Продолжительность : 1 ч. 38 м.
Вид битрейта : Постоянный
Битрейт : 192 Кбит/сек
Каналы : 2 канала
Расположение каналов : Front: L R
Частота : 48,0 КГц
Битовая глубина : 16 бит
Метод сжатия : С потерями
Размер потока : 135 Мбайт (100%)
Общее
Полное имя : D:VideoLegioner.1998.BDRip.1080pLegioner.1998.AVO.rus.С.Визгунов.ac3
Формат : AC-3
Формат/Информация : Audio Coding 3
Размер файла : 135 Мбайт
Продолжительность : 1 ч. 38 м.
Режим общего битрейта : Постоянный
Общий поток : 192 Кбит/сек
Аудио
Формат : AC-3
Формат/Информация : Audio Coding 3
Расширение режима : CM (complete main)
Параметр Endianness формата : Big
Продолжительность : 1 ч. 38 м.
Вид битрейта : Постоянный
Битрейт : 192 Кбит/сек
Каналы : 2 канала
Расположение каналов : Front: L R
Частота : 48,0 КГц
Битовая глубина : 16 бит
Метод сжатия : С потерями
Размер потока : 135 Мбайт (100%)
Общее
Уникальный идентификатор : 194528567140862244188823776267640931993 (0x9258D6D90EB133D9841FDAB47B128699)
Полное имя : D:VideoLegioner.1998.BDRip.1080pLegioner.1998.BDRip.1080p.mkv
Формат : Matroska
Версия формата : Version 4 / Version 2
Размер файла : 9,61 Гбайт
Продолжительность : 1 ч. 38 м.
Общий поток : 14,0 Мбит/сек
Дата кодирования : UTC 2015-03-04 10:31:06
Программа кодирования : mkvmerge v7.7.0 ('Six Voices') 64bit built on Feb 28 2015 23:39:33
Библиотека кодирования : libebml v1.3.1 + libmatroska v1.4.2
DURATION : 00:21:45.140000000
NUMBER_OF_FRAMES : 12
NUMBER_OF_BYTES : 983
_STATISTICS_WRITING_APP : mkvmerge v7.7.0 ('Six Voices') 64bit built on Feb 28 2015 23:39:33
_STATISTICS_WRITING_DATE_UTC : 2015-03-04 10:31:06
_STATISTICS_TAGS : BPS DURATION NUMBER_OF_FRAMES NUMBER_OF_BYTES
Видео
Идентификатор : 1
Формат : AVC
Формат/Информация : Advanced Video Codec
Профиль формата : High@L4.1
Параметр CABAC формата : Да
Параметр ReFrames формата : 4 кадра
Идентификатор кодека : V_MPEG4/ISO/AVC
Продолжительность : 1 ч. 38 м.
Битрейт : 9654 Кбит/сек
Ширина : 1920 пикселей
Высота : 818 пикселей
Соотношение сторон : 2,35:1
Режим частоты кадров : Постоянный
Частота кадров : 24,000 кадра/сек
Цветовое пространство : YUV
Субдискретизация насыщенности : 4:2:0
Битовая глубина : 8 бит
Тип развёртки : Прогрессивная
Бит/(Пиксели*Кадры) : 0.256
Размер потока : 6,64 Гбайт (69%)
Заголовок : BDRip -- STarankov
Библиотека кодирования : x264 core 142 r2431 ac76440
Настройки программы : cabac=1 / ref=4 / deblock=1:-2:-2 / analyse=0x3:0x113 / me=umh / subme=9 / psy=1 / psy_rd=1.00:0.15 / mixed_ref=1 / me_range=32 / chroma_me=1 / trellis=2 / 8x8dct=1 / cqm=0 / deadzone=21,11 / fast_pskip=1 / chroma_qp_offset=-3 / threads=6 / lookahead_threads=1 / sliced_threads=0 / nr=0 / decimate=1 / interlaced=0 / bluray_compat=0 / constrained_intra=0 / bframes=8 / b_pyramid=2 / b_adapt=2 / b_bias=0 / direct=3 / weightb=1 / open_gop=0 / weightp=2 / keyint=230 / keyint_min=23 / scenecut=40 / intra_refresh=0 / rc_lookahead=40 / rc=crf / mbtree=0 / crf=20.0 / qcomp=0.60 / qpmin=0 / qpmax=69 / qpstep=4 / vbv_maxrate=40000 / vbv_bufsize=50000 / crf_max=0.0 / nal_hrd=none / filler=0 / ip_ratio=1.40 / pb_ratio=1.30 / aq=1:1.00
Язык : English
Default : Да
Forced : Нет
DURATION : 01:38:28.667000000
NUMBER_OF_FRAMES : 141808
NUMBER_OF_BYTES : 7334493520
_STATISTICS_WRITING_APP : mkvmerge v7.7.0 ('Six Voices') 64bit built on Feb 28 2015 23:39:33
_STATISTICS_WRITING_DATE_UTC : 2015-03-04 10:31:06
_STATISTICS_TAGS : BPS DURATION NUMBER_OF_FRAMES NUMBER_OF_BYTES
Аудио #1
Идентификатор : 2
Формат : AC-3
Формат/Информация : Audio Coding 3
Расширение режима : CM (complete main)
Параметр Endianness формата : Big
Идентификатор кодека : A_AC3
Продолжительность : 1 ч. 38 м.
Вид битрейта : Постоянный
Битрейт : 384 Кбит/сек
Каналы : 6 каналов
Расположение каналов : Front: L C R, Side: L R, LFE
Частота : 48,0 КГц
Битовая глубина : 16 бит
Метод сжатия : С потерями
Размер потока : 271 Мбайт (3%)
Заголовок : MVO (OPT)
Язык : Russian
Default : Да
Forced : Нет
Аудио #2
Идентификатор : 3
Формат : AC-3
Формат/Информация : Audio Coding 3
Расширение режима : CM (complete main)
Параметр Endianness формата : Big
Идентификатор кодека : A_AC3
Продолжительность : 1 ч. 38 м.
Вид битрейта : Постоянный
Битрейт : 448 Кбит/сек
Каналы : 6 каналов
Расположение каналов : Front: L C R, Side: L R, LFE
Частота : 48,0 КГц
Битовая глубина : 16 бит
Метод сжатия : С потерями
Размер потока : 316 Мбайт (3%)
Заголовок : DVO
Язык : Russian
Default : Нет
Forced : Нет
Аудио #3
Идентификатор : 4
Формат : DTS
Формат/Информация : Digital Theater Systems
Режим : 16
Параметр Endianness формата : Big
Идентификатор кодека : A_DTS
Продолжительность : 1 ч. 38 м.
Вид битрейта : Постоянный
Битрейт : 1509 Кбит/сек
Каналы : 2 канала
Расположение каналов : Front: L R
Частота : 48,0 КГц
Битовая глубина : 16 бит
Метод сжатия : С потерями
Размер потока : 1,04 Гбайт (11%)
Заголовок : AVO (Сергей Визгунов)
Язык : Russian
Default : Нет
Forced : Нет
Аудио #4
Идентификатор : 5
Формат : DTS
Формат/Информация : Digital Theater Systems
Режим : 16
Параметр Endianness формата : Big
Идентификатор кодека : A_DTS
Продолжительность : 1 ч. 38 м.
Вид битрейта : Постоянный
Битрейт : 1509 Кбит/сек
Каналы : 2 канала
Расположение каналов : Front: L R
Частота : 48,0 КГц
Битовая глубина : 16 бит
Метод сжатия : С потерями
Размер потока : 1,04 Гбайт (11%)
Заголовок : AVO (Андрей Гаврилов)
Язык : Russian
Default : Нет
Forced : Нет
Аудио #5
Идентификатор : 6
Формат : AC-3
Формат/Информация : Audio Coding 3
Расширение режима : CM (complete main)
Параметр Endianness формата : Big
Идентификатор кодека : A_AC3
Продолжительность : 1 ч. 38 м.
Вид битрейта : Постоянный
Битрейт : 192 Кбит/сек
Каналы : 2 канала
Расположение каналов : Front: L R
Частота : 48,0 КГц
Битовая глубина : 16 бит
Метод сжатия : С потерями
Размер потока : 135 Мбайт (1%)
Заголовок : AVO (Михаил Яроцкий)
Язык : Russian
Default : Нет
Forced : Нет
Текст
Идентификатор : 7
Формат : UTF-8
Идентификатор кодека : S_TEXT/UTF8
Идентификатор кодека/Информация : UTF-8 Plain Text
Заголовок : русские (форсированные)
Язык : Russian
Default : Да
Forced : Да
Меню
00:00:00.000 : :Chapter 01
00:10:00.208 : :Chapter 02
00:17:06.750 : :Chapter 03
00:21:28.625 : :Chapter 04
00:28:17.750 : :Chapter 05
00:35:39.166 : :Chapter 06
00:40:30.541 : :Chapter 07
00:47:03.625 : :Chapter 08
00:52:58.250 : :Chapter 09
01:00:46.083 : :Chapter 10
01:06:32.083 : :Chapter 11
01:11:53.500 : :Chapter 12
01:16:29.750 : :Chapter 13
01:22:58.375 : :Chapter 14
01:28:18.416 : :Chapter 15
01:34:24.125 : :Chapter 16
01:38:28.708 : :Chapter 17
Общее
Полное имя : D:VideoLegioner.1998.BDRip.1080pLegioner.1998.eng.srt
Формат : SubRip
Размер файла : 60,6 Кбайт
Текст
Формат : SubRip
Метод сжатия : Без потерь
Общее
Полное имя : D:VideoLegioner.1998.BDRip.1080pLegioner.1998.fra.srt
Формат : SubRip
Размер файла : 53,0 Кбайт
Текст
Формат : SubRip
Метод сжатия : Без потерь
Общее
Полное имя : D:VideoLegioner.1998.BDRip.1080pLegioner.1998.MVO.rus.ТВЦ.ac3
Формат : AC-3
Формат/Информация : Audio Coding 3
Размер файла : 135 Мбайт
Продолжительность : 1 ч. 38 м.
Режим общего битрейта : Постоянный
Общий поток : 192 Кбит/сек
Аудио
Формат : AC-3
Формат/Информация : Audio Coding 3
Расширение режима : CM (complete main)
Параметр Endianness формата : Big
Продолжительность : 1 ч. 38 м.
Вид битрейта : Постоянный
Битрейт : 192 Кбит/сек
Каналы : 2 канала
Расположение каналов : Front: L R
Частота : 48,0 КГц
Битовая глубина : 16 бит
Метод сжатия : С потерями
Размер потока : 135 Мбайт (100%)
Общее
Полное имя : D:VideoLegioner.1998.BDRip.1080pLegioner.1998.Original.eng.dts
Формат : DTS
Формат/Информация : Digital Theater Systems
Размер файла : 1,04 Гбайт
Продолжительность : 1 ч. 38 м.
Режим общего битрейта : Постоянный
Общий поток : 1509 Кбит/сек
Аудио
Формат : DTS
Формат/Информация : Digital Theater Systems
Режим : 16
Параметр Endianness формата : Big
Продолжительность : 1 ч. 38 м.
Вид битрейта : Постоянный
Битрейт : 1509 Кбит/сек
Каналы : 2 канала
Расположение каналов : Front: L R
Частота : 48,0 КГц
Битовая глубина : 16 бит
Метод сжатия : С потерями
Размер потока : 1,04 Гбайт (100%)
Общее
Полное имя : D:VideoLegioner.1998.BDRip.1080pLegioner.1998.rus.srt
Формат : SubRip
Размер файла : 61,7 Кбайт
Текст
Формат : SubRip
Метод сжатия : Без потерь
Общее
Полное имя : D:VideoLegioner.1998.BDRip.1080pLegioner.1998.VO.rus.одноголосый.ac3
Формат : AC-3
Формат/Информация : Audio Coding 3
Размер файла : 135 Мбайт
Продолжительность : 1 ч. 38 м.
Режим общего битрейта : Постоянный
Общий поток : 192 Кбит/сек
Аудио
Формат : AC-3
Формат/Информация : Audio Coding 3
Расширение режима : CM (complete main)
Параметр Endianness формата : Big
Продолжительность : 1 ч. 38 м.
Вид битрейта : Постоянный
Битрейт : 192 Кбит/сек
Каналы : 2 канала
Расположение каналов : Front: L R
Частота : 48,0 КГц
Битовая глубина : 16 бит
Метод сжатия : С потерями
Размер потока : 135 Мбайт (100%)

Скриншоты

[Профиль] [ЛС]
Показать сообщения:    

Текущее время: Сегодня 11:07

Часовой пояс: GMT



Вы не можете начинать темы
Вы не можете отвечать на сообщения
Вы не можете редактировать свои сообщения
Вы не можете удалять свои сообщения
Вы не можете голосовать в опросах
Вы не можете прикреплять файлы к сообщениям
Вы не можете скачивать файлы