Легенды / Legends / Сезон: 1 / Серии: 1-10 из 10 (Дэвид Семел, Брэд Тёрнер, Джон Беринг) [2014, драма, WEB-DLRip] MVO (NewStudio) + Original

 
Автор Сообщение

sergej644 ®

Пол:

Стаж: 4 года 11 месяцев

Сообщений: 6046

Откуда: Soviet Union



Награды: Нет

Торрент-статистика

Создавать темы 10-Окт-2014 18:44

[Цитировать]

--Легенды / Legends
Год выпуска: 2014
Страна: США
Жанр: драма
Продолжительность: 00:42:00
Перевод: Профессиональный (многоголосый закадровый) NewStudio
Режиссёр: Дэвид Семел, Брэд Тёрнер, Джон Беринг
В ролях: Шон Бин, Эли Лартер, Тина Мэйджорино, Стив Харрис, Эмбер Валлетта, Мэйсон Кук, Джейсон Йоркер, Моррис Честнат, Роксана Бруссо, Дэвид Мюнье
Описание: В прошлом Мартин специальный сотрудник аппарата Центральной Разведки, агент, работающий под прикрытием. При выполнении специальных заданий Мартину приходилось выдавать себя за самых разных людей. Иногда Мартин так "вживался" в образ, что порой сам начинал верить, что он реально и есть этот человек. Тайные спец операции остались в прошлом. А в данный момент Мартин занимается частным сыском. Однажды его обычная жизнь "перевернулась с ног на голову". Мартина начинают одолевать некоторые сомнения, у него появились догадки, что он не тот Мартин, за которого он себя выдаёт... Теперь его целью становиться во что бы не стало докопаться до правды. Что это "больное" воображение? Или всё таки секретные эксперименты ЦРУ?...
Сэмпл
Качество: WEB-DLRip
Формат: AVI
Видео кодек: XviD
Аудио кодек: MP3
Видео: 720x400 (1.80:1), 23.976 fps, XviD ~1559 kbps avg, 0.226 bit/pixel
Аудио Rus: 48 kHz, MPEG Layer 3, 2 ch, ~128 kbps avg
Аудио Eng: 48 kHz, MPEG Layer 3, 2 ch, ~128 kbps avg
Субтитры: отсутствуют

MediaInfo

Format                                   : AVI
Format/Info                              : Audio Video Interleave
File size                                : 550 MiB
Duration                                 : 42mn 2s
Overall bit rate                         : 1 829 Kbps
Writing application                      : VirtualDubMod 1.5.10.2 (build 2540/release)
Writing library                          : VirtualDubMod build 2540/release
Video
ID                                       : 0
Format                                   : MPEG-4 Visual
Format profile                           : Advanced Simple@L5
Format settings, BVOP                    : 2
Format settings, QPel                    : No
Format settings, GMC                     : No warppoints
Format settings, Matrix                  : Default (MPEG)
Codec ID                                 : XVID
Codec ID/Hint                            : XviD
Duration                                 : 42mn 2s
Bit rate                                 : 1 559 Kbps
Width                                    : 720 pixels
Height                                   : 400 pixels
Display aspect ratio                     : 16:9
Frame rate                               : 23.976 fps
Color space                              : YUV
Chroma subsampling                       : 4:2:0
Bit depth                                : 8 bits
Scan type                                : Progressive
Compression mode                         : Lossy
Bits/(Pixel*Frame)                       : 0.226
Stream size                              : 469 MiB (85%)
Writing library                          : XviD 64
Audio #1
ID                                       : 1
Format                                   : MPEG Audio
Format version                           : Version 1
Format profile                           : Layer 3
Mode                                     : Joint stereo
Mode extension                           : MS Stereo
Codec ID                                 : 55
Codec ID/Hint                            : MP3
Duration                                 : 42mn 2s
Bit rate mode                            : Constant
Bit rate                                 : 128 Kbps
Channel(s)                               : 2 channels
Sampling rate                            : 48.0 KHz
Compression mode                         : Lossy
Stream size                              : 38.5 MiB (7%)
Alignment                                : Aligned on interleaves
Interleave, duration                     : 42 ms (1.00 video frame)
Interleave, preload duration             : 504 ms
Audio #2
ID                                       : 2
Format                                   : MPEG Audio
Format version                           : Version 1
Format profile                           : Layer 3
Mode                                     : Joint stereo
Codec ID                                 : 55
Codec ID/Hint                            : MP3
Duration                                 : 42mn 2s
Bit rate mode                            : Constant
Bit rate                                 : 128 Kbps
Channel(s)                               : 2 channels
Sampling rate                            : 48.0 KHz
Compression mode                         : Lossy
Stream size                              : 38.5 MiB (7%)
Alignment                                : Aligned on interleaves
Interleave, duration                     : 42 ms (1.00 video frame)
Interleave, preload duration             : 504 ms
Writing library                          : LAME3.99r
Encoding settings                        : -m j -V 4 -q 2 -lowpass 17 -b 128

Скриншоты

--
[Профиль] [ЛС]
Показать сообщения:    

Текущее время: Сегодня 22:42

Часовой пояс: GMT



Вы не можете начинать темы
Вы не можете отвечать на сообщения
Вы не можете редактировать свои сообщения
Вы не можете удалять свои сообщения
Вы не можете голосовать в опросах
Вы не можете прикреплять файлы к сообщениям
Вы не можете скачивать файлы