Легенды Ретро FM 12.12.2015 (полная версия) (2015) WEBRip 720p

 
Автор Сообщение

BOSS ®

Пол:

Стаж: 2 года 1 месяц

Сообщений: 3713

Откуда: ODESSA



Награды: 20 (Подробнее)

Top Keeper 2 (Количество: 1) Top Keeper 3 (Количество: 1) Mega Seeder 3 (Количество: 1)
Торрент-статистика

Создавать темы 17-Дек-2015 11:48

[Цитировать]

Информация о фильме
Оригинальное название: Легенды Ретро FM 12.12.2015 (полная версия)
Год выхода: 2015
Жанр: Pop, disco
О фильме:
В СК Олимпийский состоялся одиннадцатый по счету, международный фестиваль «ЛЕГЕНДЫ РЕТРО FM»! 12 декабря в Москве соберались самые главные звёзды 70х, 80х и 90х! Многие артисты – и зарубежные, и российские – приняли участие в грандиозном фестивале Ретро FM впервые!
В афише 2015 года – легендарная группа BONEY M (солистка – Лиз Митчелл), королева евродиско C.С. CATCH, знаменитые итальянцы RICCHI E POVERI. Впервые на сцену фестиваля Ретро FM выйдут исполнители золотых хитов 70х-80хFANCY («Flames of love»), GIBSON BROTHERS («Сuba»), GILLA («Johnny»), звёзды 90х LOU BEGA («Mambo N5») и IN-GRID («Tu еs foutu»)!
В списке российских участников фестиваля также легендарные артисты трёх десятилетий: ЛАЙМА ВАЙКУЛЕ, ДМИТРИЙ МАЛИКОВ, НАТАША КОРОЛЁВА, ВАДИМ КАЗАЧЕНКО, АННЕ ВЕСКИ, ЕВГЕНИЙ ОСИН, ЛАДА ДЭНС, ИГОРЬ КОРНЕЛЮК и многие другие!
Одним из главных сюрпризов супершоу «ЛЕГЕНДЫ РЕТРО FM 2015» стало возрождение настоящей легенды 90х – группы YAKI-DA! По просьбе Ретро FM участницы шведского дуэта Линда и Мэри снова вернулись на сцену и впервые после 15 лет молчания споют свой суперхит «I saw you dancing»!

Историческая справка:

Международный музыкальный фестиваль «ЛЕГЕНДЫ РЕТРО FM» – одно из самых масштабных и самых популярных постановочных шоу в России. Именно этот фестиваль воссоединил культовые европейские группы - DSCHINGHIS KHAN, ARMY OF LOVERS, ARABESQUE, SECRET SERVICE, ACE OF BASE. Благодаря «ЛЕГЕНДАМ РЕТРО FM» их возвращение на сцену после долгих лет молчания произошло именно в России. Фестиваль также возродил и многие российские музыкальные проекты.
Вот уже десять лет«ЛЕГЕНДЫ РЕТРО FM» ежегодно собирают аншлаги в «Олимпийском», а премьеру телеверсии на Первом канале смотрят десятки миллионов зрителей во всём мире! «ЛЕГЕНДЫ РЕТРО FM» - это шоу на уровне мировых стандартов, неожиданные имена в афише, яркое и необычное оформление. А ещё это неповторимая праздничная атмосфера, долгожданные встречи друзей и одноклассников - и конечно, любимые артисты и золотые хиты 70х, 80х и 90х!

Треклист:

01. Наталья Гулькина - Дискотека
02. Наталья Гулькина - Айвенго
03. Лайма Вайкуле - Я вышла на Пикадилли
04. Лайма Вайкуле - Листья Желтые
05. Fancy - Bolero
06. Fancy - Flames Of Love
07. Виктор Салтыков - Кони В Яблоках
08. Виктор Салтыков - Улетели Листья
09. Наталья Королева - Синие Лебеди
10. Наталья Королева - Желтые Тюльпаны
11. Boney M - Sunny
12. Boney M - Brown Girl In The Ring
13. Boney M - Gotta Go Home
14. Boney M - Rasputin
15. Вадим Казаченко - Больно Мне, Больно
16. Вадим Казаченко - Ах, Какая Женщина
17. С.С.Catch - House Of Mystic Lights
18. C.C.Catch - Heaven And Hell
19. C.C.Catch - Jump In My Car
20. C.C.Catch - Soul Survivor
21. Lou Bega - I've Got A Girl
22. Lou Bega - Mamba №5
23. Lou Bega - Sunshine Reggae
24. Gilla - Johnny
25. Gilla - Tom Cat
26. Евгений Осин - Плачет Девушка В Автомате
27. Евгений Осин - Не Верю
28. Евгений Осин - А Когда На Море Качка
29. Ricchi E Poveri - Sara Perche Ti Amo
30. Ricchi E Poveri - Cosa Sei
31. Ricchi E Poveri - Ciao Italy
32. Ricchi E Poveri - Mamma Maria
33. Yaki-Da - I Saw You Dancing
34. Yaki-Da - Pride Of Africa
35. Сергей Беликов - Деревня
36. Сергей Беликов - Радуга
37. In-Grid - In Tango
38. In-Grid - Tu Es Fortu
39. Лада Дэнс - Аромат Любви
40. Лада Дэнс - Девочка-Ночь
41. Gibson Brothers - Cuba
42. Gibson Brothers - Que Sera Mi Vida
43. Анне Вески - Праздник Снегопада
44. Анне Вески - Позади Крутой Поворот

MediaInfo:

General
Complete name : G:Legendy Retro FM (full version) 12.12.2015 FilmRus by music80 720p.mkv
Format : MPEG-4
Format profile : Base Media / Version 2
Codec ID : mp42
File size : 8.97 GiB
Duration : 3h 44mn
Overall bit rate mode : Variable
Overall bit rate : 5 720 Kbps
Encoded date : UTC 2015-12-16 14:06:01
Tagged date : UTC 2015-12-16 14:06:01
©TIM : 00:00:00:00
©TSC : 25
©TSZ : 1
Video #1
ID : 1
Format : AVC
Format/Info : Advanced Video Codec
Format profile : Main@L4.2
Format settings, CABAC : Yes
Format settings, ReFrames : 3 frames
Codec ID : avc1
Codec ID/Info : Advanced Video Coding
Duration : 3h 44mn
Bit rate : 5 495 Kbps
Width : 1 280 pixels
Height : 720 pixels
Display aspect ratio : 16:9
Frame rate mode : Constant
Frame rate : 25.000 fps
Standard : PAL
Color space : YUV
Chroma subsampling : 4:2:0
Bit depth : 8 bits
Scan type : Progressive
Bits/(Pixel*Frame) : 0.239
Stream size : 8.62 GiB (96%)
Language : English
Encoded date : UTC 2015-12-16 14:06:01
Tagged date : UTC 2015-12-16 14:06:01
Audio #2
ID : 2
Format : AAC
Format/Info : Advanced Audio Codec
Format profile : LC
Codec ID : 40
Duration : 3h 44mn
Source duration : 3h 44mn
Bit rate mode : Variable
Bit rate : 221 Kbps
Maximum bit rate : 340 Kbps
Channel(s) : 2 channels
Channel positions : Front: L R
Sampling rate : 48.0 KHz
Compression mode : Lossy
Stream size : 356 MiB (4%)
Source stream size : 356 MiB (4%)
Language : English
Encoded date : UTC 2015-12-16 14:06:01
Tagged date : UTC 2015-12-16 14:06:01

Внимание:

Проблемы с трансляцией в первой части концерта (как на первом скриншоте) не прошли стороной, следал все что можно было, чтобы максимально сохранить картинку, в связи с этим, более менее картинка начинается только с песни Виктора Салтыкова - Улетели Листья. На сегодняшний день лучше вряд ли можно сделать, возможно после трансляции в новогоднюю ночь первым каналом и можно будет уже собрать полную и качественную версию (смотря сколько будет показано из всего концерта). Но в любом случае лучше чем ходит по инету копия с канала SMART TV где вещает Пик.
Желаю всем приятного просмотра.
Страна: Россия
Продолжительность: 03:44:34
Файл
Кодек: MPEG-4 AVC
Качество: WEBRip 720p
Видео: 5495 Кбит/с, 1280x720, 25 кадр/с
Звук: AAC, 2 ch, 221 Кбит/с

Скриншоты

[Профиль] [ЛС]
Показать сообщения:    

Текущее время: Сегодня 14:00

Часовой пояс: GMT



Вы не можете начинать темы
Вы не можете отвечать на сообщения
Вы не можете редактировать свои сообщения
Вы не можете удалять свои сообщения
Вы не можете голосовать в опросах
Вы не можете прикреплять файлы к сообщениям
Вы не можете скачивать файлы