Легенды завтрашнего дня / DC's Legends of Tomorrow (Сезон 1, Серии 1-11 из 16) (Дермотт Даунс, Глен Винтер, Джо Данте) [2016, Фантастика, боевик, WEB-DLRip 1080p] [DD5.1] [MVO] [LostFilm ]

 
Автор Сообщение

Враг Нароода ®

Стаж: 1 год 8 месяцев

Сообщений: 109



Награды: 2 (Подробнее)

За внесенный вклад в развитие сайта (Количество: 1) Mega Seeder 1 (Количество: 1)
Торрент-статистика

Создавать темы 14-Фев-2016 15:21

[Цитировать]

-- --Легенды завтрашнего дня / DC's Legends of Tomorrow Сезон 1, Серии 1-11 из 16-- --Год выпуска: 2016
Выпущено:США , Berlanti Productions, Bonanza Productions, DC Entertainment, Warner Bros. Television
Жанр: Фантастика, боевик
Продолжительность: 00:45:00
Сезон: 1
Серии: 1-11
Количество серий в сезоне: 16
Озвучка 1:Многоголосое профессиональное закадровое озвучание - LostFilm
Озвучка 2: Профессиональный многоголосый - Английский - Оригинал
Субтитры: НЕТ--Официальный сайт
--Режиссер: Дермотт Даунс, Глен Винтер, Джо Данте--Сценаристы:
Грег Берланти, Эндрю Крейсберг, Марк Гуггенхайм, Фил Клеммер. --В ролях: Артур Дарвилл (Рип Хантер), Кейти Лотц (Сара Лэнс), Брэндон Рут (Рэй Палмер), Виктор Гарбер (Мартин Штейн), Франц Драмех (Джей Джексон), Доминик Перселл (Тепловая волна), Вентворт Миллер (Капитан Холод), Сиара Рене (Орлица), Фальк Хеншел (Ястреб), Каспер Крамп (Вандал Сэвидж). .-- «Легенды завтрашнего дня» — это спин-офф популярных сериалов канала The CW «Стрела» (Arrow) и «Флэш» (The Flash). Продюсер Грег Берланти и его коллеги Эндрю Крейсберг и Марк Гуггенхайм задались целью создать масштабное и зрелищное шоу, в котором на стороне добра будут бороться не только супергерои, но и отъявленные негодяи. Создатели фантастического боевика собрали свою мини-версию Лиги Справедливости и отправили ее путешествовать по разным временным эпохам. Несмотря на то, что DC's Legends of Tomorrow делит вселенную со «Стрелой» и «Флэшем», спин-офф — вполне самостоятельный проект, вобравший в себя все лучшее от сериалов-побратимов. Команда Берланти за несколько лет накопила немалый опыт в постановке спецэффектов, поэтому от «Легенд завтрашнего дня» смело можно ожидать экшена высочайшего уровня. В новом сериале каждый зритель наверняка найдет своего любимчика, ведь все персонажи — сильные личности, способные задать жару любому противнику.
-- --Качество :WEB-DLRip 1080p
Формат: MKV
Видео кодек: H264
Видео: 5372Кбит/сек,1920х1080(16.9),в 24.000кадр/сек,AVC(High@L4)(CABAC/2 Ref Frames)
Аудио Кодек:AC3
Аудио #1: AC3, 384 Kbps, 48.0 KHz, 6 ch - - LostFilm
Аудио #2: AC3,384 Kbps, 48.0 KHz,6 ch - - English--

Доп. информация:

Звуковая дорожка сделана путем наложения чистого голоса озвучивателей на центральный канал оригинальной дорожки. Качество идентично звуковой дорожке.
--

Список эпизодов


01 Пилот. Часть 1 (Pilot, Part 1)
02 Пилот. Часть 2 (Pilot, Part 2)
03 Кровные узы (Blood Ties)
04 Благородные рыцари (White Knights)
05 Запасной план (Fail-Safe)
06 Стар-Сити 2046 (Star City 2046)
07 Взаперти (Marooned)
08 Крылатая ночь (Night of the Hawk)
09 Оставленные (Left Behind)
10 Потомок (Progeny)
11 Великолепная восьмерка (The Magnificent Eight)
--

MediaInfo

Общее
Уникальный идентификатор : 178138915534279824659632131523525946723 (0x86044EA29D89A481A56E4C6F1F832D63)
Полное имя : E:\К ИНО\ФАНТАСТИКА\ЛЕГЕНДЫ ЗАВТРАШНЕГО ДНЯ\DC's_Legends_of_Tomorrow_2016_S01_[LostFilm]_Н264_DD5.1_N.B_WEB-DLRip_1080p_Rus_Eng\DC's_Legends_of_Tomorrow_S01Е01-Е02_[LostFilm]_N.B_WEB-DL_1080p_Rus_Eng.mkv
Формат : Matroska
Версия формата : Version 4 / Version 2
Размер файла : 3,75 Гбайт
Продолжительность : 1 ч. 27 м.
Режим общего битрейта : Переменный
Общий поток : 6142 Кбит/сек
Название фильма : DC's_Legends_of_Tomorrow_S01Е01-Е02_[LostFilm]_N.B_WEB-DL_1080p_Rus_Eng
Дата кодирования : UTC 2016-01-31 12:03:10
Программа кодирования : mkvmerge v8.8.0 ('Wind at my back') 64bit
Библиотека кодирования : libebml v1.3.3 + libmatroska v1.4.4
Видео
Идентификатор : 1
Формат : AVC
Формат/Информация : Advanced Video Codec
Профиль формата : High@L4
Параметр CABAC формата : Да
Параметр ReFrames формата : 2 кадра
Параметр GOP формата : M=2, N=15
Идентификатор кодека : V_MPEG4/ISO/AVC
Продолжительность : 1 ч. 27 м.
Вид битрейта : Переменный
Битрейт : 5372 Кбит/сек
Максимальный битрейт : 16,0 Мбит/сек
Ширина : 1920 пикселей
Высота : 1080 пикселей
Соотношение сторон : 16:9
Режим частоты кадров : Переменный
Частота кадров : 24,043 кадра/сек
Частота кадров в оригинале : 29,970 (30000/1001) кадров/сек
Цветовое пространство : YUV
Субдискретизация насыщенности : 4:2:0
Битовая глубина : 8 бит
Тип развёртки : Прогрессивная
Бит/(Пиксели*Кадры) : 0.108
Размер потока : 3,28 Гбайт (87%)
Язык : English
Default : Нет
Forced : Нет
Аудио #1
Идентификатор : 2
Формат : AC-3
Формат/Информация : Audio Coding 3
Расширение режима : CM (complete main)
Параметр Endianness формата : Big
Идентификатор кодека : A_AC3
Продолжительность : 1 ч. 27 м.
Вид битрейта : Постоянный
Битрейт : 384 Кбит/сек
Каналы : 6 каналов
Расположение каналов : Front: L C R, Side: L R, LFE
Частота : 48,0 КГц
Частота кадров : 31,250 кадров/сек (1536 spf)
Метод сжатия : С потерями
Размер потока : 240 Мбайт (6%)
Default : Нет
Forced : Нет
Аудио #2
Идентификатор : 3
Формат : AC-3
Формат/Информация : Audio Coding 3
Расширение режима : CM (complete main)
Параметр Endianness формата : Big
Идентификатор кодека : A_AC3
Продолжительность : 1 ч. 27 м.
Вид битрейта : Постоянный
Битрейт : 384 Кбит/сек
Каналы : 6 каналов
Расположение каналов : Front: L C R, Side: L R, LFE
Частота : 48,0 КГц
Частота кадров : 31,250 кадров/сек (1536 spf)
Метод сжатия : С потерями
Размер потока : 240 Мбайт (6%)
Default : Нет
Forced : Нет
--

Скриншоты

-- -- Внимание! Раздача ведётся путём добавления новых серий!--

Внимание! Раздача ведётся путём добавления новых серий!

Раздача ведётся путём добавления новых серий; при каждом добавлении создётся новый торрент.
Чтобы начать докачку новой серии, пользователям необходимо сделать следующее:
1. остановить скачивание,
2. удалить старый торрент у себя из клиента (старые серии удалять не надо),
3. скачать новый торрент и запустить его у себя в клиенте вместо старого, при этом указать клиенту путь в старую папку, куда и должно происходить скачивание новых серий.
Ваш клиент при этом должен произвести хеширование (проверку) старой папки (если не производит сам - помогите ему сделать это), и будет докачивать только те серии которых у вас ещё нет. Старые серии при этом не удаляются, а продолжают раздаваться!
Eсли вы уже удалили старые серии, то предотвратить повторную закачку старых серий можно, отжав галочку в соответсвующих местах при запуске нового торрента. По возможности, желательно не удалять старые серии как можно дольше, чтобы релизёр не столько продолжал раздавать старые серии, а смог сконцентрироваться на новых.
Совет для тех, кто не хочет ждать перехеширования:
Создайте ещё одну папку рядом с папкой сериала (рядом, а не в ней!!!). Каждую новую серию после удачной загрузки копируйте в новую папку так чтобы ваша основная папка всегда была пуста. Когда ваш новый торрент предложит вам закачать все файлы, выберете только последнюю. Для сидирования же укажите адрес новой папки.
Как закачать отдельный файл из торрента или докачать ранее пропущенные файлы торрента!

Как закачать отдельный файл

1. Открыть торрент
2. Снять галки с тех файлов торрента, которые мы не хотим закачивать. Оставляем только на нужных нам файлах (файле).
3. Нажать О.К.
В клиенте utorrent
Инструкция
1) Открыть торрент

2) Снять галки с тех файлов торрента, которые мы не хотим закачивать:
* либо вручную, снимая с каждого файла галку( скрин №1)
* либо, нажав кнопку "Снять метки (Select None)", сняв сразу со всех файлов(скрин №2)
№1

№2

Оставляем только на нужных нам файлах (файле).

3)Нажать О.К
-- -- --Внимание!!! 19.04. 2016. РАЗДАЧА ОБНОВЛЕНА. ОБНОВИТЕ ТОРЕНТ ФАЙЛ.ПРИЯТНОГО ПРОСМОТРА . --Релиз от: Nikolai.Baranov & PIRATIYA -- -- -- --
[Профиль] [ЛС]
Показать сообщения:    

Текущее время: Сегодня 07:05

Часовой пояс: GMT



Вы не можете начинать темы
Вы не можете отвечать на сообщения
Вы не можете редактировать свои сообщения
Вы не можете удалять свои сообщения
Вы не можете голосовать в опросах
Вы не можете прикреплять файлы к сообщениям
Вы не можете скачивать файлы