Легенда / Legend (2015) BDRip-AVC | Лицензия

 
Автор Сообщение

достали все ®

Пол:

Стаж: 1 год 8 месяцев

Сообщений: 6571



Награды: 12 (Подробнее)

Mega Seeder 2 (Количество: 1) Mega Releaser 3 (Количество: 1) Mega Releaser 1 (Количество: 1)
Торрент-статистика

Создавать темы 28-Янв-2016 09:07

[Цитировать]

Легенда
Legend
«Преступление – как профессия. Взлет и падение легендарных близнецов Крэй»

Страна: Великобритания, Франция
Жанр: криминал, триллер, драма
Год выпуска: 2015
Продолжительность: 02:11:08
Перевод: Профессиональный (полное дублирование) [Лицензия BD RUS]
Субтитры: английские, английские (SDH)
Оригинальная аудиодорожка: нет
Режиссер: Брайан Хелгеленд / Brian Helgeland
В ролях: Том Харди, Эмили Браунинг, Дэвид Тьюлис, Даффи, Кристофер Экклстон, Чазз Пальминтери, Колин Морган, Джошуа Хилл, Пол Андерсон, Тара Фитцджеральд, Николас Фэррел, Адам Фогерти
Описание:
Фильм расскажет историю близнецов Реджи и Ронни Крэй, культовых фигур преступного мира Великобритании 1960-х. Братья возглавляли самую влиятельную бандитскую группировку Ист-Энда. В их послужном списке: вооруженные грабежи, рэкет, поджоги, покушения, убийства и собственный ночной клуб, куда доезжали даже голливудские знаменитости. Среди их жертв - криминальные авторитеты Джек МакВитти и Джордж Корнелл.

Релиз:
Автор рипа: Stalker oK
Сэмпл
Качество видео: BDRip-AVC [RARBG / Blu-ray Remux / 1080p]
Формат видео: MKV
Видео кодек: AVC
Аудио кодек: AC3
Видео: 1212 Кбит/сек, 898x376 (2.40:1), 24 кадр/сек, AVC
Аудио: русский, 384 Кбит/сек, 48 КГц, 16 бит, 5.1, AC3
Навигация по главам: есть

MediaInfo

Общее
Уникальный идентификатор : 236957806448016066424166908758974031677 (0xB24469DB19ABB3648EF8A149FB6C673D)
Полное имя : M:Rips3Legend 20151Legend.2015.BDRip-AVC.Dub.1.45Gb.stalkerok.new-team.mkv
Формат : Matroska
Версия формата : Version 4 / Version 2
Размер файла : 1,46 Гбайт
Продолжительность : 2 ч. 11 м.
Общий поток : 1593 Кбит/сек
Название фильма : Legend (2015) (New-Team) (Rip by Stalker oK)
Дата кодирования : UTC 2016-01-28 07:58:02
Программа кодирования : mkvmerge v8.6.1 ('Flying') 64bit
Библиотека кодирования : libebml v1.3.3 + libmatroska v1.4.4
Видео
Идентификатор : 1
Формат : AVC
Формат/Информация : Advanced Video Codec
Профиль формата : High@L4.1
Параметр CABAC формата : Да
Параметр ReFrames формата : 16 кадров
Идентификатор кодека : V_MPEG4/ISO/AVC
Продолжительность : 2 ч. 11 м.
Битрейт : 1212 Кбит/сек
Ширина : 898 пикселей
Высота : 376 пикселей
Соотношение сторон : 2,40:1
Режим частоты кадров : Постоянный
Частота кадров : 24,000 кадра/сек
Цветовое пространство : YUV
Субдискретизация насыщенности : 4:2:0
Битовая глубина : 8 бит
Тип развёртки : Прогрессивная
Бит/(Пиксели*Кадры) : 0.150
Размер потока : 1,11 Гбайт (76%)
Заголовок : Legend (2015) (New-Team) (Rip by Stalker oK)
Библиотека кодирования : x264 core 148 r2638kMod 7599210
Настройки программы : cabac=1 / ref=16 / deblock=1:-3:-3 / analyse=0x3:0x133 / me=umh / subme=11 / psy=1 / fade_compensate=0.00 / psy_rd=1.00:0.10 / mixed_ref=1 / me_range=48 / chroma_me=1 / trellis=2 / 8x8dct=1 / cqm=0 / deadzone=21,11 / fast_pskip=0 / chroma_qp_offset=-3 / threads=12 / lookahead_threads=2 / sliced_threads=0 / nr=0 / decimate=0 / interlaced=0 / bluray_compat=0 / constrained_intra=0 / fgo=0 / bframes=16 / b_pyramid=2 / b_adapt=2 / b_bias=0 / direct=3 / weightb=1 / open_gop=0 / weightp=2 / keyint=240 / keyint_min=23 / scenecut=40 / intra_refresh=0 / rc_lookahead=60 / rc=2pass / mbtree=0 / bitrate=1212 / ratetol=1.0 / qcomp=0.70 / qpmin=0 / qpmax=69 / qpstep=4 / cplxblur=20.0 / qblur=0.5 / vbv_maxrate=50000 / vbv_bufsize=62500 / nal_hrd=none / filler=0 / ip_ratio=1.40 / pb_ratio=1.30 / aq=3:0.90
Default : Да
Forced : Нет
Аудио
Идентификатор : 2
Формат : AC-3
Формат/Информация : Audio Coding 3
Расширение режима : CM (complete main)
Параметр Endianness формата : Big
Идентификатор кодека : A_AC3
Продолжительность : 2 ч. 11 м.
Вид битрейта : Постоянный
Битрейт : 384 Кбит/сек
Каналы : 6 каналов
Расположение каналов : Front: L C R, Side: L R, LFE
Частота : 48,0 КГц
Частота кадров : 31,250 кадров/сек (1536 spf)
Метод сжатия : С потерями
Размер потока : 360 Мбайт (24%)
Заголовок : Blu-Ray RUS
Язык : Russian
Default : Да
Forced : Нет
Текст #1
Идентификатор : 3
Формат : UTF-8
Идентификатор кодека : S_TEXT/UTF8
Идентификатор кодека/Информация : UTF-8 Plain Text
Продолжительность : 2 ч. 7 м.
Битрейт : 76 бит/сек
Count of elements : 2004
Размер потока : 71,2 Кбайт (0%)
Язык : English
Default : Нет
Forced : Нет
Текст #2
Идентификатор : 4
Формат : UTF-8
Идентификатор кодека : S_TEXT/UTF8
Идентификатор кодека/Информация : UTF-8 Plain Text
Продолжительность : 2 ч. 7 м.
Битрейт : 80 бит/сек
Count of elements : 2111
Размер потока : 74,6 Кбайт (0%)
Заголовок : SDH
Язык : English
Default : Нет
Forced : Нет
Текст #3
Идентификатор : 5
Формат : UTF-8
Идентификатор кодека : S_TEXT/UTF8
Идентификатор кодека/Информация : UTF-8 Plain Text
Продолжительность : 2 ч. 7 м.
Битрейт : 89 бит/сек
Count of elements : 2113
Размер потока : 83,8 Кбайт (0%)
Заголовок : SDH
Язык : English
Default : Нет
Forced : Нет
Меню
00:00:00.000 : en:Chapter 1
00:10:25.291 : en:Chapter 2
00:21:04.915 : en:Chapter 3
00:30:57.125 : en:Chapter 4
00:43:26.291 : en:Chapter 5
00:50:36.958 : en:Chapter 6
01:02:41.333 : en:Chapter 7
01:12:30.375 : en:Chapter 8
01:23:04.041 : en:Chapter 9
01:33:02.707 : en:Chapter 10
01:43:27.291 : en:Chapter 11
01:54:15.666 : en:Chapter 12

[Профиль] [ЛС]
Показать сообщения:    

Текущее время: Сегодня 16:35

Часовой пояс: GMT



Вы не можете начинать темы
Вы не можете отвечать на сообщения
Вы не можете редактировать свои сообщения
Вы не можете удалять свои сообщения
Вы не можете голосовать в опросах
Вы не можете прикреплять файлы к сообщениям
Вы не можете скачивать файлы