Легенда / Legend (Брайан Хелгеленд / Brian Helgeland) [2015, Великобритания, Франция, криминал, триллер, драма, Screener] Dub (Line)

 
Автор Сообщение

TorrentFilm ®

Пол:

Стаж: 2 года

Сообщений: 7741



Награды: Нет

Торрент-статистика

Создавать темы 03-Янв-2016 00:17

[Цитировать]

Легенда / Legend
Страна: Великобритания, Франция
Жанр: криминал, триллер, драма
Год выпуска: 2015
Продолжительность: 01:59:11
Перевод: Профессиональный (дублированный) Line
Cубтитры: нет
Режиссер: Брайан Хелгеленд / Brian Helgeland
В ролях: Том Харди, Эмили Браунинг, Дэвид Тьюлис, Даффи, Кристофер Экклстон, Чазз Пальминтери, Колин Морган, Джошуа Хилл, Пол Андерсон, Тара Фитцджеральд, Николас Фэррел, Адам Фогерти, Мел Райдо, Мейджор Джон Финли, Милли Брэйди, Крис Мэйсон, Стивен Томпсон, Сэм Спруэлл, Тэрон Эджертон, Алекс Фернс
Описание: Фильм расскажет историю близнецов Реджи и Ронни Крэй, культовых фигур преступного мира Великобритании 1960-х. Братья возглавляли самую влиятельную бандитскую группировку Ист-Энда. В их послужном списке: вооруженные грабежи, рэкет, поджоги, покушения, убийства и собственный ночной клуб, куда доезжали даже голливудские знаменитости. Среди их жертв — криминальные авторитеты Джек МакВитти и Джордж Корнелл.
Сэмпл: http://multi-up.com/1080746
Качество видео: Screener
Формат видео: AVI
Видео: 688x272 (2.53:1), 29.970 fps, XviD build 73 ~736 kbps avg, 0.13 bit/pixel
Аудио: 48 kHz, MPEG Layer 3, 2 ch, ~128.00 kbps avg

MediaInfo

Формат : AVI
Формат/Информация : Audio Video Interleave
Размер файла : 747 Мбайт
Продолжительность : 1 ч. 59 м.
Общий поток : 876 Кбит/сек
Программа кодирования : VirtualDubMod 1.5.10.3 | www.virtualdub-fr.org || (build 2550/release)
Библиотека кодирования : VirtualDubMod build 2550/release
Видео
Идентификатор : 0
Формат : MPEG-4 Visual
Профиль формата : Advanced Simple@L5
Параметр BVOP формата : 1
Параметр QPel формата : Нет
Параметр GMC формата : Без точки перехода
Параметр матрицы формата : Default (H.263)
Идентификатор кодека : XVID
Идентификатор кодека/Подсказка : XviD
Продолжительность : 1 ч. 59 м.
Битрейт : 737 Кбит/сек
Ширина : 688 пикселей
Высота : 272 пикселя
Соотношение сторон : 2,529
Частота кадров : 29,970 (29970/1000) кадров/сек
Цветовое пространство : YUV
Субдискретизация насыщенности : 4:2:0
Битовая глубина : 8 бит
Тип развёртки : Прогрессивная
Метод сжатия : С потерями
Бит/(Пиксели*Кадры) : 0.131
Размер потока : 628 Мбайт (84%)
Библиотека кодирования : XviD 73
Аудио
Идентификатор : 1
Формат : MPEG Audio
Версия формата : Version 1
Профиль формата : Layer 3
Идентификатор кодека : 55
Идентификатор кодека/Подсказка : MP3
Продолжительность : 1 ч. 59 м.
Вид битрейта : Постоянный
Битрейт : 128 Кбит/сек
Каналы : 2 канала
Частота : 48,0 КГц
Метод сжатия : С потерями
Размер потока : 109 Мбайт (15%)
Выравнивание : Соединение по промежуткам
Продолжительность промежутка : 33 мс. (1,00 видеокадр)
Время предзагрузки промежутка : 504 мс.
Библиотека кодирования : LAME3.99r
Настройки программы : -m s -V 4 -q 2 -lowpass 17 -b 128

Скриншоты

[Профиль] [ЛС]
Показать сообщения:    

Текущее время: Сегодня 02:15

Часовой пояс: GMT



Вы не можете начинать темы
Вы не можете отвечать на сообщения
Вы не можете редактировать свои сообщения
Вы не можете удалять свои сообщения
Вы не можете голосовать в опросах
Вы не можете прикреплять файлы к сообщениям
Вы не можете скачивать файлы