Легенда / Legend (1985) BDRip 1080p от NNNB | P | Theatrical Cut

 
Автор Сообщение

sergej644 ®

Пол:

Стаж: 4 года 11 месяцев

Сообщений: 6041

Откуда: Soviet Union



Награды: Нет

Торрент-статистика

Создавать темы 24-Окт-2014 10:04

[Цитировать]

--Легенда / Legend

Информация о фильме

Русское название: Легенда
Оригинальное название: Legend
Год выхода: 1985
Жанр: фэнтези, мелодрама, приключения
Режиссер: Ридли Скотт
Выпущено: США, Великобритания
Продолжительность: 01:33:43
Перевод: Профессиональный (Многоголосый закадровый)
В ролях: Том Круз, Миа Сара, Тим Карри, Давид Беннент, Элис Плэйтен, Билли Барти, Корк Хабберт, Питер О’Фэррелл, Киран Шах, Аннабелль Лэньон-Сюжет фильма
Злые чары окутали волшебный лес фей и магов, диковинных существ и невиданных созданий. Здесь властвует зловещий Повелитель Тьмы, истребляющий неуловимых единорогов, чтобы повергнуть мир в хаос вечной ночи.
Его коварные слуги - гоблины всюду творят свои черные дела, вселяя ужас в невинных обитателей сказочной страны, и теперь только мужественный лесной странник Джек и его отважные друзья смогут избавить свой удивительный мир от жестокого властелина подземного царства мрака, где томится возлюбленная Джека, прекрасная принцесса Лили.
Дьявол пытается заполучить молодую невинную девушку. А парнишка пытается спасти Единорога, хранителя Света, от посягательств сил Зла.-
Файл
Качество: BDRip 1080p (исходник Blu-ray Disc)
Видео: 1920x820, 10768 Кбит/сек, 23,976 кадр/сек, AVC, x264, High@L4.1, 2.35:1, 0.285 Бит/[Пиксели*Кадры]
Аудио 1: AC-3, 448 Кбит/сек, 6 канала(ов), 48,0 КГц - Многоголосый закадровый / Русский
Аудио 2: AC-3, 640 Кбит/сек, 6 канала(ов), 48,0 КГц - Оригинал / Японский
Субтитры: Русские | Полные, Английские | Полные
Форсированные субтитры: Нет
Чаптеры (Главы): Есть-

MediaInfo

Format : Matroska
Format version : Version 2
File size : 7.75 GiB
Duration : 1h 33mn
Overall bit rate : 11.8 Mbps
Movie name : Легенда.(1985).BDRip.1080p.[envy].Theatrical Cut
Encoded date : UTC 2014-10-24 07:23:39
Writing application : mkvmerge v5.8.0 ('No Sleep / Pillow') built on Sep 2 2012 15:37:04
Writing library : libebml v1.2.3 + libmatroska v1.3.0
Video
ID : 1
Format : AVC
Format/Info : Advanced Video Codec
Format profile : High@L4.1
Format settings, CABAC : Yes
Format settings, ReFrames : 5 frames
Codec ID : V_MPEG4/ISO/AVC
Duration : 1h 33mn
Bit rate : 10.8 Mbps
Width : 1 920 pixels
Height : 820 pixels
Display aspect ratio : 2.35:1
Frame rate mode : Constant
Frame rate : 23.976 fps
Color space : YUV
Chroma subsampling : 4:2:0
Bit depth : 8 bits
Scan type : Progressive
Bits/(Pixel*Frame) : 0.285
Stream size : 6.88 GiB (89%)
Title : Легенда.(1985).BDRip.1080p.[envy].Theatrical Cut
Writing library : x264 core 142 r2479 dd79a61
Encoding settings : cabac=1 / ref=5 / deblock=1:-3:-3 / analyse=0x3:0x113 / me=umh / subme=11 / psy=1 / psy_rd=1.00:0.00 / mixed_ref=1 / me_range=32 / chroma_me=1 / trellis=2 / 8x8dct=1 / cqm=0 / deadzone=21,11 / fast_pskip=0 / chroma_qp_offset=-2 / threads=12 / lookahead_threads=1 / sliced_threads=0 / nr=0 / decimate=1 / interlaced=0 / bluray_compat=0 / constrained_intra=0 / bframes=5 / b_pyramid=2 / b_adapt=2 / b_bias=0 / direct=3 / weightb=1 / open_gop=0 / weightp=2 / keyint=240 / keyint_min=23 / scenecut=40 / intra_refresh=0 / rc=2pass / mbtree=0 / bitrate=10768 / ratetol=2.0 / qcomp=0.60 / qpmin=0 / qpmax=69 / qpstep=4 / cplxblur=20.0 / qblur=0.5 / ip_ratio=1.40 / pb_ratio=1.30 / aq=2:0.90
Language : English
Default : Yes
Forced : No
Audio #1
ID : 2
Format : AC-3
Format/Info : Audio Coding 3
Mode extension : CM (complete main)
Format settings, Endianness : Big
Codec ID : A_AC3
Duration : 1h 33mn
Bit rate mode : Constant
Bit rate : 448 Kbps
Channel(s) : 6 channels
Channel positions : Front: L C R, Side: L R, LFE
Sampling rate : 48.0 KHz
Bit depth : 16 bits
Compression mode : Lossy
Stream size : 300 MiB (4%)
Title : MVO
Language : Russian
Default : Yes
Forced : No
Audio #2
ID : 3
Format : AC-3
Format/Info : Audio Coding 3
Mode extension : CM (complete main)
Format settings, Endianness : Big
Codec ID : A_AC3
Duration : 1h 33mn
Bit rate mode : Constant
Bit rate : 640 Kbps
Channel(s) : 6 channels
Channel positions : Front: L C R, Side: L R, LFE
Sampling rate : 48.0 KHz
Bit depth : 16 bits
Compression mode : Lossy
Stream size : 429 MiB (5%)
Title : Eng
Language : English
Default : No
Forced : No
Text #1
ID : 4
Format : UTF-8
Codec ID : S_TEXT/UTF8
Codec ID/Info : UTF-8 Plain Text
Title : full
Language : Russian
Default : No
Forced : No
Text #2
ID : 5
Format : UTF-8
Codec ID : S_TEXT/UTF8
Codec ID/Info : UTF-8 Plain Text
Title : full SDH
Language : English
Default : No
Forced : No
Menu
00:00:00.000 : :Chapter 01
00:01:56.658 : :Chapter 02
00:04:21.261 : :Chapter 03
00:08:19.999 : :Chapter 04
00:11:22.598 : :Chapter 05
00:17:45.481 : :Chapter 06
00:24:14.286 : :Chapter 07
00:30:54.352 : :Chapter 08
00:44:01.639 : :Chapter 09
00:48:32.326 : :Chapter 10
00:59:02.288 : :Chapter 11
01:03:26.594 : :Chapter 12
01:06:36.575 : :Chapter 13
01:14:17.035 : :Chapter 14
01:19:25.510 : :Chapter 15
01:24:09.294 : :Chapter 16
01:25:37.132 : :Chapter 17
01:29:41.292 : :Chapter 18
--
[Профиль] [ЛС]
Показать сообщения:    

Текущее время: Сегодня 06:05

Часовой пояс: GMT



Вы не можете начинать темы
Вы не можете отвечать на сообщения
Вы не можете редактировать свои сообщения
Вы не можете удалять свои сообщения
Вы не можете голосовать в опросах
Вы не можете прикреплять файлы к сообщениям
Вы не можете скачивать файлы