Легенда о старом маяке. (Витольд Бордзиловский) [1977, СССР, Военно-патриотический, WEB-DLRip]

 
Автор Сообщение

TorrentFilm ®

Пол:

Стаж: 2 года

Сообщений: 7741



Награды: Нет

Торрент-статистика

Создавать темы 27-Фев-2016 00:08

[Цитировать]

Легенда о старом маяке.
Страна: СССР
Жанр: Военно-патриотический
Продолжительность: 00:18:43
Год выпуска: 1977
Перевод: Не требуется
Русские субтитры: нет
Режиссёр: Витольд Бордзиловский
Роли озвучивали: Катаева Л., Бардин Гарри, Дмитриева Т., Виноградова Мария.
Поёт А. Градский.
Описание: Фильм посвящен патриотической теме - освобождению родной земли от фашистских захватчиков в период Великой Отечественной войны. В основе сюжета - приключения ребят, помогающих зажечь маяк, чтобы советские корабли вошли в бухту и разгромили гитлировцев. Нужно успеть зажечь маяк до высадки десанта во что бы то ни стало. Но это не так просто…

Качество: WEBRip
Формат: AVI
Видео: 512x384 (1.33:1), 25 fps, XviD build 50 ~1985 kbps avg, 0.40 bit/pixel
Аудио: 44.100 kHz, MPEG Layer 3, 2 ch, ~128.00 kbps avg
Субтитры: "отсутствуют"

Подробные технические данные

GeneralComplete name : C:\Users\Mersicc\Documents\Легенда о старом маяке.aviFormat : AVIFormat/Info : Audio Video InterleaveFile size : 284 MiBDuration : 18mn 43sOverall bit rate : 2 123 KbpsWriting application : VirtualDubMod 1.5.10.3 | www.virtualdub-fr.org || (build 2550/release)Writing library : VirtualDubMod build 2550/release
VideoID : 0Format : MPEG-4 VisualFormat profile : Advanced Simple@L5Format settings, BVOP : 1Format settings, QPel : NoFormat settings, GMC : No warppointsFormat settings, Matrix : Default (MPEG)Codec ID : XVIDCodec ID/Hint : XviDDuration : 18mn 43sBit rate : 1 986 KbpsWidth : 512 pixelsHeight : 384 pixelsDisplay aspect ratio : 4:3Frame rate : 25.000 fpsColor space : YUVChroma subsampling : 4:2:0Bit depth : 8 bitsScan type : ProgressiveCompression mode : LossyBits/(Pixel*Frame) : 0.404Stream size : 266 MiB (94%)Writing library : XviD 1.2.1 (UTC 2008-12-04)
AudioID : 1Format : MPEG AudioFormat version : Version 1Format profile : Layer 3Codec ID : 55Codec ID/Hint : MP3Duration : 18mn 43sBit rate mode : ConstantBit rate : 128 KbpsChannel(s) : 2 channelsSampling rate : 44.1 KHzCompression mode : LossyStream size : 17.1 MiB (6%)Alignment : Split accross interleavesInterleave, duration : 40 ms (1.00 video frame)Interleave, preload duration : 500 msWriting library : LAME3.99rEncoding settings : -m s -V 4 -q 2 -lowpass 17 -b 128

Скриншоты

[Профиль] [ЛС]
Показать сообщения:    

Текущее время: Сегодня 10:34

Часовой пояс: GMT



Вы не можете начинать темы
Вы не можете отвечать на сообщения
Вы не можете редактировать свои сообщения
Вы не можете удалять свои сообщения
Вы не можете голосовать в опросах
Вы не можете прикреплять файлы к сообщениям
Вы не можете скачивать файлы