Легенда о старом маяке (Витольд Бордзиловский) [1976, мультфильм, короткометражка, DVDRip]

 
Автор Сообщение

TorrentFilm ®

Пол:

Стаж: 2 года

Сообщений: 7741



Награды: Нет

Торрент-статистика

Создавать темы 08-Июн-2015 00:04

[Цитировать]

Легенда о старом маяке
Страна: СССР
Жанр: мультфильм, короткометражка
Продолжительность: 18:42
Год выпуска: 1976
Русские субтитры: нет
Режиссёр: Витольд Бордзиловский
Роли озвучивали: Александр Градский
Мария Виноградова
Тамара Дмитриева
Л. Катаева
Гарри Бардин
Описание: Фильм посвящен патриотической теме — освобождению родной земли от фашистских захватчиков в период Великой Отечественной войны. В основе сюжета — приключения ребят, помогающих зажечь маяк, чтобы советские корабли вошли в бухту и разгромили гитлеровцев
Семпл: http://multi-up.com/1052126
Качество: DVDRip
Формат: AVI
Видео: XVID, 640*480, 25 fps, 1100 kbps
Аудио: MP3, 44.1 KHz, 2 channels, 112 Kbps
Субтитры: отсутствуют

Подробные технические данные

GeneralFormat : AVIFormat/Info : Audio Video InterleaveFile size : 163 MiBDuration : 18mn 42sOverall bit rate : 1 222 KbpsWriting application : VirtualDubMod 1.5.10.2 (build 2540/release)Writing library : VirtualDubMod build 2540/release
VideoID : 0Format : MPEG-4 VisualFormat profile : Advanced Simple@L5Format settings, BVOP : 1Format settings, QPel : NoFormat settings, GMC : No warppointsFormat settings, Matrix : Default (MPEG)Codec ID : XVIDCodec ID/Hint : XviDDuration : 18mn 42sBit rate : 1 100 KbpsWidth : 640 pixelsHeight : 480 pixelsDisplay aspect ratio : 4:3Frame rate : 25.000 fpsColor space : YUVChroma subsampling : 4:2:0Bit depth : 8 bitsScan type : ProgressiveCompression mode : LossyBits/(Pixel*Frame) : 0.143Stream size : 147 MiB (90%)Writing library : XviD 1.2.1 (UTC 2008-12-04)
AudioID : 1Format : MPEG AudioFormat version : Version 1Format profile : Layer 3Codec ID : 55Codec ID/Hint : MP3Duration : 18mn 42sBit rate mode : ConstantBit rate : 112 KbpsChannel(s) : 2 channelsSampling rate : 44.1 KHzCompression mode : LossyStream size : 15.0 MiB (9%)Alignment : Split accross interleavesInterleave, duration : 40 ms (1.00 video frame)Interleave, preload duration : 500 msWriting library : LAME3.98rEncoding settings : -m s -V 4 -q 0 -lowpass 15.6 -b 112

Скриншоты




[Профиль] [ЛС]
Показать сообщения:    

Текущее время: Сегодня 22:23

Часовой пояс: GMT



Вы не можете начинать темы
Вы не можете отвечать на сообщения
Вы не можете редактировать свои сообщения
Вы не можете удалять свои сообщения
Вы не можете голосовать в опросах
Вы не можете прикреплять файлы к сообщениям
Вы не можете скачивать файлы