Лев и 9 гиен (Галина Баринова) [1988, СССР, Союзмультфильм, Мультфильм, DVB]

 
Автор Сообщение

TorrentFilm ®

Пол:

Стаж: 2 года

Сообщений: 7741



Награды: Нет

Торрент-статистика

Создавать темы 10-Дек-2015 00:07

[Цитировать]

Лев и 9 гиен
Страна: СССР, Союзмультфильм
Жанр: Мультфильм
Продолжительность: 00:09:24
Год выпуска: 1988
Перевод: Не требуется
Русские субтитры: нет
Режиссёр: Галина Баринова
Роли озвучивали: Николай Граббе, Нина Гуляева, Леонид Марков, Ия Саввина, Рогволд Суховерко, Мария Виноградова, Лариса Удовиченко, Ирина Карташёва, Вячеслав Невинный, Всеволод Ларионов
Описание: По мотивам африканской народной сказки в пересказе В. Важдаева.


Качество: DVB
Формат: MPEG-TS
Видео: MPEG Video, 4726 kbps, 704 x 576 (1.333), 25 fps
Аудио: MPEG Audio, 160 kbps, 2 ch, 48 kHz
Субтитры: Отсутствуют

Подробные технические данные

ОбщееИдентификатор : 1 (0x1)Полное имя : D:\00-Лев и 9 гиен\Лев и 9 гиен.tsФормат : MPEG-TSРазмер файла : 346 МбайтПродолжительность : 9 м. 24 с.Режим общего битрейта : ПеременныйОбщий поток : 5141 Кбит/сек
ВидеоИдентификатор : 1310 (0x51E)Идентификатор меню : 310 (0x136)Формат : MPEG VideoВерсия формата : Version 2Профиль формата : Main@MainПараметр BVOP формата : ДаПараметр матрицы формата : ВыборочнаяПараметр GOP формата : VariableСтруктура изображения : FrameИдентификатор кодека : 2Продолжительность : 9 м. 24 с.Вид битрейта : ПеременныйБитрейт : 4726 Кбит/секМаксимальный битрейт : 15,0 Мбит/секШирина : 704 пикселяВысота : 576 пикселейСоотношение сторон : 4:3Частота кадров : 25,000 кадров/секСтандарт вещания : PALЦветовое пространство : YUVСубдискретизация насыщенности : 4:2:0Битовая глубина : 8 битТип развёртки : ЧересстрочнаяПорядок развёртки : Верхнее поле первоеМетод сжатия : С потерямиБит/(Пиксели*Кадры) : 0.466Временной код первого кадра : 00:00:00:00Оригинал временного кода : Group of pictures headerGOP, открыто/закрыто : ОткрытоРазмер потока : 318 Мбайт (92%)
АудиоИдентификатор : 2310 (0x906)Идентификатор меню : 310 (0x136)Формат : MPEG AudioВерсия формата : Version 1Профиль формата : Layer 2Идентификатор кодека : 3Продолжительность : 9 м. 24 с.Вид битрейта : ПостоянныйБитрейт : 160 Кбит/секКаналы : 2 каналаЧастота : 48,0 КГцМетод сжатия : С потерямиЗадержка видео : 11 мс.Размер потока : 10,8 Мбайт (3%)Язык : Russian

Скриншоты

[Профиль] [ЛС]
Кто просматривает тему:

Форум Тема Автор Размер
Отечественные мультфильмы Лев и бык (Фёдор Хитрук) [1983 г., Мультфильм, DVDRip] painkiller 176 MB
Показать сообщения:    

Текущее время: Сегодня 18:38

Часовой пояс: GMT



Вы не можете начинать темы
Вы не можете отвечать на сообщения
Вы не можете редактировать свои сообщения
Вы не можете удалять свои сообщения
Вы не можете голосовать в опросах
Вы не можете прикреплять файлы к сообщениям
Вы не можете скачивать файлы