Лев и бык (Фёдор Хитрук) [1983 г., Мультфильм, DVDRip]

 
Автор Сообщение

painkiller ®

Стаж: 2 года 3 месяца

Сообщений: 582



Награды: Нет

Торрент-статистика

Создавать темы 27-Авг-2014 19:35

[Цитировать]

Лев и быкСтрана: СССР
Жанр: Мультфильм
Продолжительность: 00:09:28
Год выпуска: 1983
Выпущено: «Союзмультфильм»
Режиссёр: Фёдор Хитрук
Русские субтитры: нетОписание:Лев был царём зверей, шакал был его «правой рукой». Но однажды на территорию льва зашёл бык. Шакал попробовал натравить льва на быка как на непрошенного гостя (видимо, надеясь, что они убьют друг друга), но лев был умнее и гораздо благороднее шакала. Лев и бык подружились...Призы и награды• 1983 г., VII МФ анимационных фильмов Cinanima в Эшпинью (Португалия) — почётный диплом в категории фильмов от 3 до 12 минут (Фёдор Хитрук)
• 1983 г., XIV МФ к/м фильмов в Тампере (Финляндия) — назван лучшим анимационным фильмом года «За мастерское владение стилем классической анимации»

Режиссёр и команда

Режиссёр: Фёдор Хитрук
сценарист Фёдор Хитрук
художник-постановщик Владимир Зуйков
xудожники: Зоя Монетова, Ф. Олейников, А. Залетаева, А. Лугачев, Ольга Новоселова
аниматоры: Юрий Кузюрин, Александр Дорогов, Александр Мазаев, Виолетта Колесникова, Юрий Мещеряков, Владимир Захаров
оператор Кабул Расулов
директор Лилиана Монахова
композитор Моисей Вайнберг
звукорежиссёр Борис Фильчиков
редактор Раиса Фричинская
монтажёр И. Герасимова
Качество: DVDRip
Формат: AVI
Видео: 720x544 (1.32:1), 25 fps, XviD build 64 ~2389 kbps avg, 0.24 bit/pixel
Аудио: 48 kHz, AC3 Dolby Digital, 2/0 (L,R) ch, ~192 kbps
Субтитры: отсутствуют

Подробные технические данные

ОбщееПолное имя : D:\Мульты\Lev_i_byk.aviФормат : AVIФормат/Информация : Audio Video InterleaveРазмер файла : 176 МбайтПродолжительность : 9 м. 28 с.Общий поток : 2592 Кбит/секПрограмма кодирования : VirtualDubMod 1.5.10.2 (build 2540/release)Библиотека кодирования : VirtualDubMod build 2540/release
ВидеоИдентификатор : 0Формат : MPEG-4 VisualПрофиль формата : Advanced Simple@L5Параметр BVOP формата : 2Параметр QPel формата : НетПараметр GMC формата : Без точки переходаПараметр матрицы формата : ВыборочнаяИдентификатор кодека : XVIDИдентификатор кодека/Подсказка : XviDПродолжительность : 9 м. 28 с.Битрейт : 2390 Кбит/секШирина : 720 пикселейВысота : 544 пикселяСоотношение сторон : 4:3Частота кадров : 25,000 кадров/секЦветовое пространство : YUVСубдискретизация насыщенности : 4:2:0Битовая глубина : 8 битТип развёртки : ПрогрессивнаяМетод сжатия : С потерямиБит/(Пиксели*Кадры) : 0.244Размер потока : 162 Мбайт (92%)Библиотека кодирования : XviD 64
АудиоИдентификатор : 1Формат : AC-3Формат/Информация : Audio Coding 3Расширение режима : CM (complete main)Идентификатор кодека : 2000Продолжительность : 9 м. 28 с.Вид битрейта : ПостоянныйБитрейт : 192 Кбит/секКаналы : 2 каналаРасположение каналов : Front: L RЧастота : 48,0 КГцБитовая глубина : 16 битМетод сжатия : С потерямиРазмер потока : 13,0 Мбайт (7%)Выравнивание : Разделение по промежуткамПродолжительность промежутка : 40 мс. (1,00 видеокадр)Время предзагрузки промежутка : 500 мс.

Скриншоты

-
[Профиль] [ЛС]
Показать сообщения:    

Текущее время: Сегодня 18:41

Часовой пояс: GMT



Вы не можете начинать темы
Вы не можете отвечать на сообщения
Вы не можете редактировать свои сообщения
Вы не можете удалять свои сообщения
Вы не можете голосовать в опросах
Вы не можете прикреплять файлы к сообщениям
Вы не можете скачивать файлы