Лев Гурыч Синичкин (Александр Белинский) [1974, Водевиль, DVB]

 
Автор Сообщение

sergej644 ®

Пол:

Стаж: 4 года 11 месяцев

Сообщений: 6042

Откуда: Soviet Union



Награды: Нет

Торрент-статистика

Создавать темы 18-Мар-2015 17:28

[Цитировать]

--Лев Гурыч Синичкин

Жанр: Водевиль
Год выпуска: 1974
Продолжительность: 01:12:13
Режиссёр: Александр Белинский
В ролях:
Николай Трофимов — Лев Гурыч Синичкин
Галина Федотова — Лизонька (озвучивание — Таисия Калинченко)
Нонна Мордюкова — Раиса Минична Сурмилова, прима театра
Георгий Георгиу — Терсис Иванович Чахоткин, актёр
Олег Табаков — Борзиков, драматург
Михаил Козаков — граф Зефиров, знатное лицо
Илья Рутберг — Налимов, распорядитель в театре
Пётр Щербаков — Пустославцев, содержатель театра
Леонид Куравлёв — князь Ветренский
Андрей Миронов — дирижёр

Старый актёр Лев Гурыч Синичкин (Николай Николаевич Трофимов) мечтает, чтобы его дочери Лизоньке (Галина Федотова) досталась главная роль — ведь она так талантлива. Но ему противостоят обстоятельства: могущественная примадонна труппы Сурмилова (Нонна Мордюкова) с ужасным характером и большими связями…
Доп. информация: Предыдущая экранизация водевиля Дмитрия Ленского была снята в 1956 году режиссёром Константином Юдиным — «На подмостках сцены».
Семпл: https://www.sendspace.com/file/7tlks1
Качество видео: DVB
Формат видео: MPG
Видео: MPEG2 720х576 (4:3), 3047 Kbps, 25.000 fps
Аудио: MPEG Audio 48.0 KHz, 192 Kbps, 2 channels

MediaInfo

Общее
Полное имя : Лев Гурыч Синичкин.mpg
Формат : MPEG-PS
Размер файла : 1,67 Гбайт
Продолжительность : 1 ч. 12 м.
Режим общего битрейта : Переменный
Общий поток : 3304 Кбит/сек
Библиотека кодирования : (dvd5: Nov 27 2014)
Видео
Идентификатор : 224 (0xE0)
Формат : MPEG Video
Версия формата : Version 2
Профиль формата : Main@Main
Параметр BVOP формата : Да
Параметр матрицы формата : Выборочная
Параметр GOP формата : M=3, N=12
Продолжительность : 1 ч. 12 м.
Вид битрейта : Переменный
Битрейт : 3047 Кбит/сек
Максимальный битрейт : 10000 Кбит/сек
Ширина : 720 пикселей
Высота : 576 пикселей
Соотношение сторон : 4:3
Частота кадров : 25,000 кадров/сек
Стандарт вещания : PAL
Цветовое пространство : YUV
Субдискретизация насыщенности : 4:2:0
Битовая глубина : 8 бит
Тип развёртки : Чересстрочная
Порядок развёртки : Верхнее поле первое
Метод сжатия : С потерями
Бит/(Пиксели*Кадры) : 0.294
Временной код первого кадра : 00:00:00:00
Оригинал временного кода : Group of pictures header
Размер потока : 1,54 Гбайт (92%)
Библиотека кодирования : (dvd5: Nov 27 2014)
Аудио
Идентификатор : 192 (0xC0)
Формат : MPEG Audio
Версия формата : Version 1
Профиль формата : Layer 2
Продолжительность : 1 ч. 12 м.
Вид битрейта : Постоянный
Битрейт : 192 Кбит/сек
Каналы : 2 канала
Частота : 48,0 КГц
Метод сжатия : С потерями
Задержка видео : 8 мс.
Размер потока : 99,2 Мбайт (6%)

Скриншоты

--
[Профиль] [ЛС]

Создавать темы 06-Авг-2015 22:00 (спустя 4 месяца 19 дней)

Топик был перенесен из форума Кино СССР в форум Кино СССР
sergej644
 
Кто просматривает тему:

Показать сообщения:    

Текущее время: Сегодня 14:27

Часовой пояс: GMT



Вы не можете начинать темы
Вы не можете отвечать на сообщения
Вы не можете редактировать свои сообщения
Вы не можете удалять свои сообщения
Вы не можете голосовать в опросах
Вы не можете прикреплять файлы к сообщениям
Вы не можете скачивать файлы