Левша / Southpaw (Антуан Фукуа / Antoine Fuqua) [2015, США, драма, спорт, BDRip] Dub (BD RUS) + Sub Eng

 
Автор Сообщение

TorrentFilm ®

Пол:

Стаж: 1 год 11 месяцев

Сообщений: 7741



Награды: Нет

Торрент-статистика

Создавать темы 29-Ноя-2015 00:08

[Цитировать]

--Левша / Southpaw--«Преодолей судьбу»- Страна: США
Жанр: драма, спорт
Год выпуска: 2015
Продолжительность: 02:03:49-Перевод: Профессиональный (дублированный) BD RUS
Cубтитры: нглийские (обычные, SDH, SDH-Colored)
Оригинальная аудиодорожка: нет-Режиссер: Антуан Фукуа / Antoine Fuqua-В ролях: Джейк Джилленхол (Billy Hope), Рэйчел МакАдамс (Maureen Hope), Форест Уитакер (Tick Wills), Уна Лоуренс (Leila Hope), Фифти Сент (Jordan Mains), Скайлан Брукс (Hoppy), Наоми Харрис (Angela Rivera), Виктор Ортис (Ramone), Бо Напп (Jon Jon), Мигель Гомес (Miguel «Magic» Escobar)
Описание: У боксера Билли Хоупа все было прекрасно: звание чемпиона, красавица-жена и любимая дочка. Но фортуна отворачивается от него: при трагических обстоятельствах погибает любимая жена, дисквалификация на ринге, нулевые доходы, суд лишает его родительских прав… Хоуп должен отстоять звание чемпиона и вернуть дочь. Есть ли у Хоупа шансы на победу? Все решит его знаменитый хук левой…-| Сэмпл | IMDB | КиноПоиск |

Автор рипа: yaroslaigor-Качество видео: BDRip (источник: HDCLUB / Blu-Ray Remux [USA Transfer] / 1080р)
Формат видео: AVI
Видео: 720x304 (2.37:1), 23.976 fps, XviD build 65 ~2070 kbps avg, 0.39 bit/pixel
Аудио: 48 kHz, AC3 Dolby Digital, 3/2 (L,C,R,l,r) + LFE ch, ~448 kbps avg (DUB)

MediaInfo

General
Полное имя : D:\MOVIES\Levsha.2015.RUS.BDRip.XviD.AC3.-HQCLUB\Levsha.2015.RUS.BDRip.XviD.AC3.-HQCLUB.avi
Формат : AVI
Формат/Информация : Audio Video Interleave
Профиль формата : OpenDML
Размер файла : 2.18 GiB
Продолжительность : 2h 3mn
Общий поток : 2 525 Kbps
Название фильма : Левша / Southpaw (2015) BDRip
Режиссёр : yaroslaigor
Жанр : драма, спорт
Программа кодирования : VirtualDubMod 1.5.10.2 (build 2542/release)
Примечание : 23.11.2015
Video
Идентификатор : 0
Формат : MPEG-4 Visual
Профиль формата : Advanced Simple@L5
Параметр BVOP формата : 1
Параметр QPel формата : No
Параметр GMC формата : No warppoints
Параметр матрицы формата : Custom
Идентификатор кодека : XVID
Идентификатор кодека/Подсказка : XviD
Продолжительность : 2h 3mn
Битрейт : 2 065 Kbps
Ширина : 720 pixels
Высота : 304 pixels
Соотношение сторон : 2.35:1
Частота кадров : 23.976 fps
Цветовое пространство : YUV
Субдискретизация насыщенности : 4:2:0
Битовая глубина : 8 bits
Тип развёртки : Progressive
Метод сжатия : Lossy
Бит/(Пиксели*Кадры) : 0.394
Размер потока : 1.79 GiB (82%)
Библиотека кодирования : XviD 65
Audio
Идентификатор : 1
Формат : AC-3
Формат/Информация : Audio Coding 3
Расширение режима : CM (complete main)
Параметр Endianness формата : Big
Идентификатор кодека : 2000
Продолжительность : 2h 3mn
Вид битрейта : Constant
Битрейт : 448 Kbps
Каналы : 6 channels
Расположение каналов : Front: L C R, Side: L R, LFE
Частота : 48.0 KHz
Метод сжатия : Lossy
Размер потока : 396 MiB (18%)
Выравнивание : Split accross interleaves
Продолжительность промежутка : 42 ms (1.00 video frame)
Время предзагрузки промежутка : 500 ms
General
Полное имя : D:\MOVIES\Levsha.2015.RUS.BDRip.XviD.AC3.-HQCLUB\Levsha.2015.RUS.BDRip.XviD.AC3.-HQCLUB.ENG.SDH.COLORED.srt
Формат : SubRip
Размер файла : 175 KiB
Text
Формат : SubRip
Метод сжатия : Lossless
General
Полное имя : D:\MOVIES\Levsha.2015.RUS.BDRip.XviD.AC3.-HQCLUB\Levsha.2015.RUS.BDRip.XviD.AC3.-HQCLUB.ENG.SDH.srt
Формат : SubRip
Размер файла : 171 KiB
Text
Формат : SubRip
Метод сжатия : Lossless
General
Полное имя : D:\MOVIES\Levsha.2015.RUS.BDRip.XviD.AC3.-HQCLUB\Levsha.2015.RUS.BDRip.XviD.AC3.-HQCLUB.ENG.srt
Формат : SubRip
Размер файла : 153 KiB
Text
Формат : SubRip
Метод сжатия : Lossless

Скриншот c названием фильма

Скриншоты

-
[Профиль] [ЛС]
Показать сообщения:    

Текущее время: Сегодня 20:03

Часовой пояс: GMT



Вы не можете начинать темы
Вы не можете отвечать на сообщения
Вы не можете редактировать свои сообщения
Вы не можете удалять свои сообщения
Вы не можете голосовать в опросах
Вы не можете прикреплять файлы к сообщениям
Вы не можете скачивать файлы