Левша / Southpaw (2015) BDRip 1080p | iTunes

 
Автор Сообщение

BOSS ®

Пол:

Стаж: 2 года 1 месяц

Сообщений: 3712

Откуда: ODESSA



Награды: 20 (Подробнее)

Top Seeder 2 (Количество: 1) Top Keeper 2 (Количество: 1) Top Seeder 3 (Количество: 1)
Торрент-статистика

Создавать темы 06-Окт-2015 18:26

[Цитировать]

Информация о фильме
Название: Левша
Оригинальное название: Southpaw
Год выхода: 2015
Жанр: Драма, Триллер, Боевик, Криминал
Режиссер: Антуан Фукуа
В ролях: Джейк Джилленхол , Рэйчел МакАдамс , Форест Уитакер , Уна Лоуренс , Фифти Сент , Скайлан Брукс , Наоми Харрис , Виктор Ортис , Бо Напп , Мигель Гомес , Доминик Колон , Хосе Карабалло
О фильме:
У боксера Билли Хоупа все было прекрасно: звание чемпиона, красавица-жена и любимая дочка. Но фортуна отворачивается от него: при трагических обстоятельствах погибает любимая жена, дисквалификация на ринге, нулевые доходы, суд лишает его родительских прав... Хоуп должен отстоять звание чемпиона и вернуть дочь. Есть ли у Хоупа шансы на победу? Все решит его знаменитый хук левой...

Страна: США
Студия: Escape Artists, Fuqua Films, Riche Productions, The Weinstein Company
Продолжительность: 02:03:49
Перевод: Дублированный (iTunes)
Файл
Кодек: MPEG4 Video (H264)
Качество: BDRip 1080p | iTunes
Видео: 1920x796, 8 137 Kbps, 23.976fps
Звук:
Аудио #1: AC-3, 6 ch, 384 kbps (Rus)
Аудио #2: AC-3, 6 ch, 448 kbps (Eng)
Субтитры: Английские

Mediainfo

x264 [info]: frame I:1376 Avg QP:15.89 size:192816
x264 [info]: frame P:47590 Avg QP:18.17 size: 70298
x264 [info]: frame B:129158 Avg QP:20.22 size: 30499
x264 [info]: consecutive B-frames: 5.5% 6.5% 15.2% 14.4% 14.7% 38.3% 5.4%
General
Unique ID : 223224278388886215398948199549900879141 (0xA7EF6EA5131A7A309DAAD9C00FDEF525)
Complete name : D:FilmSouthpaw.2015.BDRip.1080p.mkv
Format : Matroska
Format version : Version 2
File size : 7.75 GiB
Duration : 2h 3mn
Overall bit rate : 8 964 Kbps
Movie name : -=WALLEDOL=-
Encoded date : UTC 2015-10-06 17:07:40
Writing application : mkvmerge v4.0.0 ('The Stars were mine') сборка от Jun 6 2010 16:18:42
Writing library : libebml v1.0.0 + libmatroska v1.0.0
Video
ID : 1
Format : AVC
Format/Info : Advanced Video Codec
Format profile : High@L4.1
Format settings, CABAC : Yes
Format settings, ReFrames : 5 frames
Codec ID : V_MPEG4/ISO/AVC
Duration : 2h 3mn
Bit rate : 8 137 Kbps
Width : 1 920 pixels
Height : 796 pixels
Display aspect ratio : 2.40:1
Frame rate mode : Constant
Frame rate : 23.976 fps
Color space : YUV
Chroma subsampling : 4:2:0
Bit depth : 8 bits
Scan type : Progressive
Bits/(Pixel*Frame) : 0.222
Stream size : 6.88 GiB (89%)
Title : Southpaw.2015.BDRip.1080p
Writing library : x264 core 148 r2597 e86f3a1
Encoding settings : cabac=1 / ref=5 / deblock=1:-3:-3 / analyse=0x3:0x133 / me=umh / subme=10 / psy=1 / psy_rd=1.00:0.10 / mixed_ref=1 / me_range=32 / chroma_me=1 / trellis=2 / 8x8dct=1 / cqm=0 / deadzone=21,11 / fast_pskip=0 / chroma_qp_offset=-3 / threads=6 / lookahead_threads=1 / sliced_threads=0 / nr=0 / decimate=1 / interlaced=0 / bluray_compat=0 / constrained_intra=0 / bframes=6 / b_pyramid=2 / b_adapt=2 / b_bias=0 / direct=3 / weightb=1 / open_gop=0 / weightp=2 / keyint=240 / keyint_min=23 / scenecut=40 / intra_refresh=0 / rc=2pass / mbtree=0 / bitrate=8137 / ratetol=1.0 / qcomp=0.60 / qpmin=0 / qpmax=69 / qpstep=4 / cplxblur=20.0 / qblur=0.5 / ip_ratio=1.40 / pb_ratio=1.30 / aq=1:0.70
Language : English
Default : No
Forced : No
Audio #1
ID : 2
Format : AC-3
Format/Info : Audio Coding 3
Mode extension : CM (complete main)
Format settings, Endianness : Big
Codec ID : A_AC3
Duration : 2h 3mn
Bit rate mode : Constant
Bit rate : 384 Kbps
Channel(s) : 6 channels
Channel positions : Front: L C R, Side: L R, LFE
Sampling rate : 48.0 KHz
Bit depth : 16 bits
Compression mode : Lossy
Stream size : 340 MiB (4%)
Title : DUB [iTunes]
Language : Russian
Default : Yes
Forced : Yes
Audio #2
ID : 3
Format : AC-3
Format/Info : Audio Coding 3
Mode extension : CM (complete main)
Format settings, Endianness : Big
Codec ID : A_AC3
Duration : 2h 3mn
Bit rate mode : Constant
Bit rate : 448 Kbps
Channel(s) : 6 channels
Channel positions : Front: L C R, Side: L R, LFE
Sampling rate : 48.0 KHz
Bit depth : 16 bits
Compression mode : Lossy
Stream size : 397 MiB (5%)
Language : English
Default : No
Forced : No
Text
ID : 4
Format : UTF-8
Codec ID : S_TEXT/UTF8
Codec ID/Info : UTF-8 Plain Text
Title : Full
Language : English
Default : No
Forced : No
Menu
00:00:00.000 : en:Chapter 1
00:08:49.695 : en:Chapter 2
00:12:58.569 : en:Chapter 3
00:20:00.657 : en:Chapter 4
00:23:40.085 : en:Chapter 5
00:29:34.147 : en:Chapter 6
00:34:59.555 : en:Chapter 7
00:39:44.298 : en:Chapter 8
00:45:46.285 : en:Chapter 9
00:52:38.655 : en:Chapter 10
00:59:28.815 : en:Chapter 11
01:07:08.733 : en:Chapter 12
01:12:49.823 : en:Chapter 13
01:18:14.481 : en:Chapter 14
01:23:40.056 : en:Chapter 15
01:29:40.416 : en:Chapter 16
01:37:00.147 : en:Chapter 17
01:45:19.896 : en:Chapter 18
01:55:01.060 : en:Chapter 19
01:59:38.504 : en:Chapter 20

Скриншоты

[Профиль] [ЛС]
Показать сообщения:    

Текущее время: Сегодня 07:06

Часовой пояс: GMT



Вы не можете начинать темы
Вы не можете отвечать на сообщения
Вы не можете редактировать свои сообщения
Вы не можете удалять свои сообщения
Вы не можете голосовать в опросах
Вы не можете прикреплять файлы к сообщениям
Вы не можете скачивать файлы