Левша / Southpaw (2015) BDRip 1080p | iTunes

 
Автор Сообщение

Russian Mafia ®

Пол:

Стаж: 1 год 8 месяцев

Сообщений: 4256



Награды: 10 (Подробнее)

Top Releaser 2 (Количество: 1) Top Releaser 4 (Количество: 1) Top Releaser 3 (Количество: 1)
Торрент-статистика

Создавать темы 03-Окт-2015 10:21

[Цитировать]

Информация о фильме
Название: Левша
Оригинальное название: Southpaw
Год выхода: 2015
Жанр: драма, спорт, боевик, триллер
Режиссер: Антуан Фукуа
В ролях: Джейк Джилленхол, Рэйчел МакАдамс, Форест Уитакер, Уна Лоуренс, Фифти Сент, Скайлан Брукс, Наоми Харрис, Виктор Ортис, Бо Напп, Мигель Гомес
О фильме: У боксера Билли Хоупа все было прекрасно: звание чемпиона, красавица-жена и любимая дочка. Но фортуна отворачивается от него: при трагических обстоятельствах погибает любимая жена, дисквалификация на ринге, нулевые доходы, суд лишает его родительских прав… Хоуп должен отстоять звание чемпиона и вернуть дочь. Есть ли у Хоупа шансы на победу? Все решит его знаменитый хук левой…


Выпущено: США / Escape Artists, Fuqua Films, Riche Productions
Продолжительность: 01:58:37
Озвучивание: Дублированное [iTunes]
Файл
Формат: MKV (x264)
Качество: BDRip 1080p
Видео: 8603 kb/s, 1920x800
Звук: English: AC3, 384 kb/s (6 ch) / English: DTS, 1510 kb/s (6 ch)
Размер: 9.07 GB
Скачать: Сэмпл-

Media Info

Общее
Уникальный идентификатор : 203670154213146688075926399062451903228 (0x993971E3816049A79979DC6BAFFF5AFC)
Полное имя : E:LevshA.2015.D.BDRip.1080p.mkv
Формат : Matroska
Версия формата : Version 2
Размер файла : 9,07 Гбайт
Продолжительность : 2 ч. 3 м.
Общий поток : 10,5 Мбит/сек
Дата кодирования : UTC 2015-10-03 00:44:56
Программа кодирования : mkvmerge v8.3.0 ('Over the Horizon') 64bit
Библиотека кодирования : libebml v1.3.1 + libmatroska v1.4.2
Видео
Идентификатор : 2
Формат : AVC
Формат/Информация : Advanced Video Codec
Профиль формата : High@L4.1
Параметр CABAC формата : Да
Параметр ReFrames формата : 5 кадров
Идентификатор кодека : V_MPEG4/ISO/AVC
Продолжительность : 2 ч. 3 м.
Битрейт : 8603 Кбит/сек
Ширина : 1920 пикселей
Высота : 800 пикселей
Соотношение сторон : 2,40:1
Режим частоты кадров : Постоянный
Частота кадров : 23,976 кадра/сек
Цветовое пространство : YUV
Субдискретизация насыщенности : 4:2:0
Битовая глубина : 8 бит
Тип развёртки : Прогрессивная
Бит/(Пиксели*Кадры) : 0.234
Размер потока : 7,26 Гбайт (80%)
Библиотека кодирования : x264 core 148 r2597 e86f3a1
Настройки программы : cabac=1 / ref=5 / deblock=1:0:0 / analyse=0x3:0x133 / me=umh / subme=7 / psy=1 / psy_rd=1.00:0.00 / mixed_ref=1 / me_range=16 / chroma_me=1 / trellis=1 / 8x8dct=1 / cqm=0 / deadzone=21,11 / fast_pskip=0 / chroma_qp_offset=-2 / threads=18 / lookahead_threads=3 / sliced_threads=0 / nr=0 / decimate=1 / interlaced=0 / bluray_compat=0 / constrained_intra=0 / bframes=3 / b_pyramid=2 / b_adapt=1 / b_bias=0 / direct=1 / weightb=1 / open_gop=0 / weightp=2 / keyint=250 / keyint_min=23 / scenecut=40 / intra_refresh=0 / rc_lookahead=40 / rc=2pass / mbtree=1 / bitrate=8603 / ratetol=1.0 / qcomp=0.60 / qpmin=0 / qpmax=69 / qpstep=4 / cplxblur=20.0 / qblur=0.5 / ip_ratio=1.40 / aq=1:1.00
Язык : English
Default : Да
Forced : Нет
Аудио #1
Идентификатор : 1
Формат : AC-3
Формат/Информация : Audio Coding 3
Расширение режима : CM (complete main)
Параметр Endianness формата : Big
Идентификатор кодека : A_AC3
Продолжительность : 2 ч. 3 м.
Вид битрейта : Постоянный
Битрейт : 384 Кбит/сек
Каналы : 6 каналов
Расположение каналов : Front: L C R, Side: L R, LFE
Частота : 48,0 КГц
Метод сжатия : С потерями
Размер потока : 340 Мбайт (4%)
Язык : Russian
Default : Да
Forced : Нет
Аудио #2
Идентификатор : 3
Формат : DTS
Формат/Информация : Digital Theater Systems
Режим : 16
Параметр Endianness формата : Big
Идентификатор кодека : A_DTS
Продолжительность : 2 ч. 3 м.
Вид битрейта : Постоянный
Битрейт : 1509 Кбит/сек
Каналы : 6 каналов
Расположение каналов : Front: L C R, Side: L R, LFE
Частота : 48,0 КГц
Битовая глубина : 24 бит
Метод сжатия : С потерями
Размер потока : 1,30 Гбайт (14%)
Язык : English
Default : Нет
Forced : Нет
Меню
00:00:00.000 : en:00:00:00.000
00:08:49.696 : en:00:08:49.696
00:12:58.569 : en:00:12:58.569
00:20:00.658 : en:00:20:00.658
00:23:40.085 : en:00:23:40.085
00:29:34.147 : en:00:29:34.147
00:34:59.556 : en:00:34:59.556
00:39:44.299 : en:00:39:44.299
00:45:46.285 : en:00:45:46.285
00:52:38.655 : en:00:52:38.655
00:59:28.815 : en:00:59:28.815
01:07:08.733 : en:01:07:08.733
01:12:49.824 : en:01:12:49.824
01:18:14.481 : en:01:18:14.481
01:23:40.057 : en:01:23:40.057
01:29:40.417 : en:01:29:40.417
01:37:00.148 : en:01:37:00.148
01:45:19.897 : en:01:45:19.897
01:55:01.061 : en:01:55:01.061
01:59:38.505 : en:01:59:38.505

Скриншоты | повтор:

- -
[Профиль] [ЛС]
Показать сообщения:    

Текущее время: Сегодня 00:36

Часовой пояс: GMT



Вы не можете начинать темы
Вы не можете отвечать на сообщения
Вы не можете редактировать свои сообщения
Вы не можете удалять свои сообщения
Вы не можете голосовать в опросах
Вы не можете прикреплять файлы к сообщениям
Вы не можете скачивать файлы