Левиафан / Leviathan (1989) BDRip 1080p | P, A

 
Автор Сообщение

sergej644 ®

Пол:

Стаж: 4 года 11 месяцев

Сообщений: 6045

Откуда: Soviet Union



Награды: Нет

Торрент-статистика

Создавать темы 24-Янв-2015 00:09

[Цитировать]

Информация о фильме
Название: Левиафан
Оригинальное название: Leviathan
Год выхода: 1989
Жанр: ужасы, фантастика, триллер, приключения
Режиссер: Джордж П. Косматос
В ролях: Питер Уэллер, Ричард Кренна, Аманда Пейс, Дэниел Стерн, Эрни Хадсон, Лиза Айлбахер, Майкл Кармине, Гектор Элисондо, Мег Фостер, Юджин Липински
О фильме: Во время вахтенных работ по добыче руды на пятикилометровой глубине в Атлантике один из техников находит затонувшее русское судно. Вскоре выясняется, что на судне велись секретные эксперименты.
В сейфе, принесенном из корабля на подводную базу шахтеров, находятся записи о таинственной болезни, поразившей весь экипаж корабля. Вскоре один из шахтеров умирает и мутирует в жуткое чудовище, которое начинает уничтожать все живое на своем пути…

Выпущено: США, Италия / Filmauro, Gordon Company, Metro-Goldwyn-Mayer (MGM)
Продолжительность: 01:33:46
Перевод: Профессиональный (многоголосый, закадровый) | Авторский (одноголосый, закадровый) - С. Визгунов
Файл
Качество: BDRip 1080p
Формат: MKV
Видео: MPEG4/AVC, 1920х814 (2.35:1), 10.8 Мбит/сек, 25.000 кадров/сек
Аудио 1: AC3, 6 каналов, 448 Кбит/сек | Многоголосый
Аудио 2: AC3, 6 каналов, 448 Кбит/сек | Визгунов
Аудио 3: AC3, 6 каналов, 448 Кбит/сек | Английский
Субтитры: Английские
Навигация по главам: Есть

MediaInfo:

Общее
Уникальный идентификатор : 236492242018772145536563989087078243822 (0xB1EABFC1DDE6D0459DB3289A0E7EDDEE)
Полное имя : Leviathan. (1989) BDRp 1080p.mkv
Формат : Matroska
Версия формата : Version 2
Размер файла : 7,95 Гбайт
Продолжительность : 1 ч. 33 м.
Общий поток : 12,1 Мбит/сек
Название фильма : Leviathan. 1989
Дата кодирования : UTC 2014-07-29 14:24:07
Программа кодирования : mkvmerge v5.8.0 ('No Sleep / Pillow') built on Sep 2 2012 15:37:04
Библиотека кодирования : libebml v1.2.3 + libmatroska v1.3.0
Видео
Идентификатор : 1
Формат : AVC
Формат/Информация : Advanced Video Codec
Профиль формата : High@L4.1
Параметр CABAC формата : Да
Параметр ReFrames формата : 4 кадра
Идентификатор кодека : V_MPEG4/ISO/AVC
Продолжительность : 1 ч. 33 м.
Битрейт : 10,8 Мбит/сек
Ширина : 1920 пикселей
Высота : 814 пикселей
Соотношение сторон : 2,35:1
Режим частоты кадров : Постоянный
Частота кадров : 25,000 кадров/сек
Цветовое пространство : YUV
Субдискретизация насыщенности : 4:2:0
Битовая глубина : 8 бит
Тип развёртки : Прогрессивная
Бит/(Пиксели*Кадры) : 0.276
Размер потока : 6,91 Гбайт (87%)
Заголовок : MySilu
Библиотека кодирования : x264 core 129 r2230 1cffe9f
Настройки программы : cabac=1 / ref=4 / deblock=1:-2:-2 / analyse=0x3:0x113 / me=umh / subme=10 / psy=1 / psy_rd=1.20:0.20 / mixed_ref=1 / me_range=32 / chroma_me=1 / trellis=2 / 8x8dct=1 / cqm=0 / deadzone=21,11 / fast_pskip=0 / chroma_qp_offset=-3 / threads=12 / lookahead_threads=2 / sliced_threads=0 / nr=0 / decimate=0 / interlaced=0 / bluray_compat=0 / constrained_intra=0 / bframes=5 / b_pyramid=2 / b_adapt=2 / b_bias=0 / direct=3 / weightb=1 / open_gop=0 / weightp=2 / keyint=250 / keyint_min=2 / scenecut=40 / intra_refresh=0 / rc_lookahead=60 / rc=2pass / mbtree=0 / bitrate=10792 / ratetol=1.0 / qcomp=0.60 / qpmin=10 / qpmax=51 / qpstep=4 / cplxblur=20.0 / qblur=0.5 / vbv_maxrate=38000 / vbv_bufsize=38000 / nal_hrd=none / ip_ratio=1.40 / pb_ratio=1.30 / aq=1:1.00
Язык : English
Default : Да
Forced : Нет
Аудио #1
Идентификатор : 2
Формат : AC-3
Формат/Информация : Audio Coding 3
Расширение режима : CM (complete main)
Параметр Endianness формата : Big
Идентификатор кодека : A_AC3
Продолжительность : 1 ч. 33 м.
Вид битрейта : Постоянный
Битрейт : 448 Кбит/сек
Каналы : 6 каналов
Расположение каналов : Front: L C R, Side: L R, LFE
Частота : 48,0 КГц
Битовая глубина : 16 бит
Метод сжатия : С потерями
Размер потока : 300 Мбайт (4%)
Заголовок : MVO
Язык : Russian
Default : Да
Forced : Нет
Аудио #2
Идентификатор : 3
Формат : AC-3
Формат/Информация : Audio Coding 3
Расширение режима : CM (complete main)
Параметр Endianness формата : Big
Идентификатор кодека : A_AC3
Продолжительность : 1 ч. 33 м.
Вид битрейта : Постоянный
Битрейт : 448 Кбит/сек
Каналы : 6 каналов
Расположение каналов : Front: L C R, Side: L R, LFE
Частота : 48,0 КГц
Битовая глубина : 16 бит
Метод сжатия : С потерями
Размер потока : 300 Мбайт (4%)
Заголовок : Визгунов
Язык : Russian
Default : Нет
Forced : Нет
Аудио #3
Идентификатор : 4
Формат : AC-3
Формат/Информация : Audio Coding 3
Расширение режима : CM (complete main)
Параметр Endianness формата : Big
Идентификатор кодека : A_AC3
Продолжительность : 1 ч. 33 м.
Вид битрейта : Постоянный
Битрейт : 448 Кбит/сек
Каналы : 6 каналов
Расположение каналов : Front: L C R, Side: L R, LFE
Частота : 48,0 КГц
Битовая глубина : 16 бит
Метод сжатия : С потерями
Размер потока : 300 Мбайт (4%)
Заголовок : Original
Язык : English
Default : Нет
Forced : Нет
Текст
Идентификатор : 5
Формат : UTF-8
Идентификатор кодека : S_TEXT/UTF8
Идентификатор кодека/Информация : UTF-8 Plain Text
Заголовок : Full
Язык : English
Default : Нет
Forced : Нет
Меню
00:00:00.000 : en:Chapter 1
00:09:36.240 : en:Chapter 2
00:19:57.039 : en:Chapter 3
00:28:58.640 : en:Chapter 4
00:44:07.559 : en:Chapter 5
00:49:20.079 : en:Chapter 6
01:01:29.039 : en:Chapter 7
01:14:14.319 : en:Chapter 8

Скриншоты

--
[Профиль] [ЛС]
Показать сообщения:    

Текущее время: Сегодня 08:03

Часовой пояс: GMT



Вы не можете начинать темы
Вы не можете отвечать на сообщения
Вы не можете редактировать свои сообщения
Вы не можете удалять свои сообщения
Вы не можете голосовать в опросах
Вы не можете прикреплять файлы к сообщениям
Вы не можете скачивать файлы