Лебедь из Синдзюку / Shinjuku suwan (2015) BDRip 720p | L2

 
Автор Сообщение

BOSS ®

Пол:

Стаж: 2 года 1 месяц

Сообщений: 3748

Откуда: ODESSA



Награды: 20 (Подробнее)

Mega Seeder 1 (Количество: 1) Mega Releaser 1 (Количество: 1) Top Keeper 4 (Количество: 1)
Торрент-статистика

Создавать темы 28-Янв-2016 16:23

[Цитировать]

Информация о фильме
Название: Лебедь из Синдзюку
Оригинальное название: Shinjuku suwan
Год выхода: 2015
Жанр: криминальная драма, экшн, черная комедия
Режиссер: Сион Соно
В ролях: Такаюки Ямада, Юсукэ Исейа, Mao Asô, Эрика Савадзири, Кен Ясуда, Эрина Мано, Гоу Аяно, Мотоки Фуками, Дзюн Мураками, Косукэ Тоёхара
О фильме: Действие фильма происходит в Кабуки-тё, квартале красных фонарей района Синдзюку. Безработный Сиритори Тацухико случайно знакомится с вербовщиком Маторой. Мужчина промышляет тем, что предлагает молодым девушкам влиться в бизнес развлечений для взрослых. Сиритори Тацухико приглянулся Маторе, и мужчина предложил ему работать вместе. Приступив к работе, Сиритори оказывается в эпицентре борьбы за власть в этой сфере.
По мотивам манги "Shinjuku Swan Kabukicho Skauto Sabaibaru" Ken Waku.


Выпущено: Япония / Happinet, Japan Music Entertainment, Kodansha Ltd., Tristone Entertainment Inc.
Продолжительность: 02:19:17
Озвучивание: Любительское (двухголосое) [den904 & DeadSno], перевод [akira9]
Файл
Формат: MKV
Качество: BDRip 720p
Видео: MPEG-4 AVC, 4960 kb/s, 1280x536
Аудио: Russian: AC3, 192 kb/s (2 ch) / Japanese: AC3, 640 kb/s (6 ch)

MI

Format : Matroska
Format version : Version 2
File size : 5.63 GiB
Duration : 2h 19mn
Overall bit rate : 5 791 Kbps
Movie name : Jubowo @ WiKi
Encoded date : UTC 2016-01-28 16:01:43
Writing application : mkvmerge v7.8.0 ('River Man') 32bit built on Apr 3 2015 12:11:22
Writing library : libebml v1.3.1 + libmatroska v1.4.2
Video
ID : 1
Format : AVC
Format/Info : Advanced Video Codec
Format profile : High@L4.1
Format settings, CABAC : Yes
Format settings, ReFrames : 12 frames
Codec ID : V_MPEG4/ISO/AVC
Duration : 2h 19mn
Bit rate : 4 960 Kbps
Width : 1 280 pixels
Height : 536 pixels
Display aspect ratio : 2.40:1
Frame rate mode : Constant
Frame rate : 23.976 fps
Color space : YUV
Chroma subsampling : 4:2:0
Bit depth : 8 bits
Scan type : Progressive
Bits/(Pixel*Frame) : 0.302
Stream size : 4.71 GiB (84%)
Writing library : x264 core 129 r2245+704+36 8e61944 tMod+MixAQ [8-bit@4:2:0 X86_64]
Encoding settings : cabac=1 / ref=12 / deblock=1:-3:-3 / analyse=0x3:0x133 / me=umh / subme=11 / psy=1 / fade_compensate=0.00 / psy_rd=1.05:0.10 / mixed_ref=1 / me_range=32 / chroma_me=1 / trellis=2 / 8x8dct=1 / cqm=0 / deadzone=21,11 / fast_pskip=0 / chroma_qp_offset=-3 / threads=18 / lookahead_threads=3 / sliced_threads=0 / nr=0 / decimate=0 / interlaced=0 / bluray_compat=0 / constrained_intra=0 / fgo=0 / bframes=10 / b_pyramid=2 / b_adapt=2 / b_bias=0 / direct=3 / weightb=1 / open_gop=0 / weightp=2 / keyint=250 / keyint_min=23 / scenecut=40 / intra_refresh=0 / rc_lookahead=80 / rc=2pass / mbtree=1 / bitrate=4960 / ratetol=1.0 / qcomp=0.70 / qpmin=0 / qpmax=69 / qpstep=4 / cplxblur=20.0 / qblur=0.5 / ip_ratio=1.40 / aq=1 / aq-strength=0.85 / aq-sensitivity=10.00 / aq-ifactor=1.00 / aq-pfactor=1.00 / aq-bfactor=1.00 / aq2=0
Language : Japanese
Default : Yes
Forced : No
Color range : Limited
Matrix coefficients : BT.709
Audio #1
ID : 2
Format : AC-3
Format/Info : Audio Coding 3
Mode extension : CM (complete main)
Format settings, Endianness : Big
Codec ID : A_AC3
Duration : 2h 19mn
Bit rate mode : Constant
Bit rate : 192 Kbps
Channel(s) : 2 channels
Channel positions : Front: L R
Sampling rate : 48.0 KHz
Bit depth : 16 bits
Compression mode : Lossy
Stream size : 191 MiB (3%)
Language : Russian
Default : Yes
Forced : No
Audio #2
ID : 3
Format : AC-3
Format/Info : Audio Coding 3
Mode extension : CM (complete main)
Format settings, Endianness : Big
Codec ID : A_AC3
Duration : 2h 19mn
Bit rate mode : Constant
Bit rate : 640 Kbps
Channel(s) : 6 channels
Channel positions : Front: L C R, Side: L R, LFE
Sampling rate : 48.0 KHz
Bit depth : 16 bits
Compression mode : Lossy
Stream size : 638 MiB (11%)
Language : Japanese
Default : No
Forced : No
Menu
00:00:00.000 : en:00:00:00.000
00:12:21.699 : en:00:12:21.699
00:21:18.902 : en:00:21:18.902
00:26:07.857 : en:00:26:07.857
00:34:16.554 : en:00:34:16.554
00:43:20.222 : en:00:43:20.222
00:54:05.450 : en:00:54:05.450
01:01:14.420 : en:01:01:14.420
01:06:53.676 : en:01:06:53.676
01:14:42.269 : en:01:14:42.269
01:24:46.915 : en:01:24:46.915
01:31:03.332 : en:01:31:03.332
01:44:27.260 : en:01:44:27.260
01:51:30.934 : en:01:51:30.934
02:03:40.329 : en:02:03:40.329
02:13:17.280 : en:02:13:17.280
02:19:16.347 : en:02:19:16.347

Скриншоты



[Профиль] [ЛС]
Кто просматривает тему:

Форум Тема Автор Размер
Сhanson (Chanson) Куприк Сергей - Лебедь белый - 2013 [FLAC, image+.cue, lossless] sergej644 318 MB
R.G.TorrentFilm Video Denis Lebedev vs. Victor Emilio Ramirez / Денис Лебедев - Виктор Рамирес [21.05.2016, Бокс, Матч!, HDTVRip, RU] Один 777 410 MB
R.G.TorrentFilm Video Белый лебедь (ГТРК «Россия») [2015, Документальный, авиация, WEBRip] Один 777 349 MB
Фильмы 2013 года Белый лебедь / Assassins Run (2013) HDRip sergej644 1.37 GB
R.G.TorrentFilm Video В моей смерти прошу винить Клаву К. (Николай Лебедев, Эрнест Ясан) [1979 г., Драма, мелодрама, SATRip] Один 777 1.1 GB
Фильмы (HD Rips | 720p, 1080p) Волкодав (Николай Лебедев) [2006, Россия, фэнтези, боевик, приключения, BDRip 720p] + Sub Eng TorrentFilm 5.94 GB
Фильмы (HD DVD, Blu-ray и BDRemux) Волкодав (Николай Лебедев) [2006, Россия, фэнтези, боевик, приключения, Blu-ray disc] + Sub Eng painkiller 24.59 GB
Любовные романы и эротика Голос сердца. 1 и 2-я книга (Брэдфорд Барбара) [2014, Любовный роман, аудиокнига, MP3, 96 kbps, Лебедева Валерия] Magnat 1.73 GB
Показать сообщения:    

Текущее время: Сегодня 01:27

Часовой пояс: GMT



Вы не можете начинать темы
Вы не можете отвечать на сообщения
Вы не можете редактировать свои сообщения
Вы не можете удалять свои сообщения
Вы не можете голосовать в опросах
Вы не можете прикреплять файлы к сообщениям
Вы не можете скачивать файлы