Лариса умеет летать (Полина Манохина, Елизавета Манохина) [2013, мультфильм, DVDScreener]

 
Автор Сообщение

TorrentFilm ®

Пол:

Стаж: 2 года

Сообщений: 7741



Награды: Нет

Торрент-статистика

Создавать темы 18-Июн-2015 14:22

[Цитировать]

Лариса умеет летать
Страна: РФ
Жанр: мультфильм
Продолжительность: 00:06:43
Год выпуска: 2013
Русские субтитры: нет
Режиссёр: Полина Манохина, Елизавета Манохина
Описание: В детстве все цвета кажутся ярче, времени не существует, а фантазии переплетаются с реальностью... Не выходя из своей комнаты, мы можем отправиться в невероятные приключения и верим, что наша бабушка умеет летать...
Доп. информация: Фильм - участник конкурсной программы фестиваля Суздаль-2014
Качество: DVDScreener
Формат: AVI
Видео: XVID, 720x408, 25fps, 1684kbps
Аудио: MPEG Layer 3, 48kHz, 2ch, 192kbps
Субтитры: отсутствуют

Подробные технические данные

Полное имя : Лариса умеет летать.aviФормат : AVIФормат/Информация : Audio Video InterleaveРазмер файла : 90,7 МбайтПродолжительность : 6 м. 43 с.Общий поток : 1888 Кбит/секПрограмма кодирования : VirtualDubMod 1.5.10.3 | www.virtualdub-fr.org || (build 2550/release)Библиотека кодирования : VirtualDubMod build 2550/release
ВидеоИдентификатор : 0Формат : MPEG-4 VisualПрофиль формата : Advanced Simple@L5Параметр BVOP формата : 1Параметр QPel формата : НетПараметр GMC формата : Без точки переходаПараметр матрицы формата : Default (H.263)Идентификатор кодека : DIVXИдентификатор кодека/Информация : Project MayoИдентификатор кодека/Подсказка : DivX 4Продолжительность : 6 м. 43 с.Битрейт : 1684 Кбит/секШирина : 720 пикселейВысота : 408 пикселейСоотношение сторон : 16:9Частота кадров : 29,970 кадров/секЦветовое пространство : YUVСубдискретизация насыщенности : 4:2:0Битовая глубина : 8 битТип развёртки : ПрогрессивнаяМетод сжатия : С потерямиБит/(Пиксели*Кадры) : 0.191Размер потока : 80,9 Мбайт (89%)Библиотека кодирования : XviD 1.2.1 (UTC 2008-12-04)
АудиоИдентификатор : 1Формат : MPEG AudioВерсия формата : Version 1Профиль формата : Layer 3Идентификатор кодека : 55Идентификатор кодека/Подсказка : MP3Продолжительность : 6 м. 43 с.Вид битрейта : ПостоянныйБитрейт : 192 Кбит/секКаналы : 2 каналаЧастота : 48,0 КГцМетод сжатия : С потерямиРазмер потока : 9,23 Мбайт (10%)Выравнивание : Соединение по промежуткамПродолжительность промежутка : 33 мс. (1,00 видеокадр)Время предзагрузки промежутка : 504 мс.Библиотека кодирования : LAME3.99rНастройки программы : -m s -V 4 -q 0 -lowpass 18.6 -b 192

Скриншоты



[Профиль] [ЛС]
Показать сообщения:    

Текущее время: Сегодня 02:43

Часовой пояс: GMT



Вы не можете начинать темы
Вы не можете отвечать на сообщения
Вы не можете редактировать свои сообщения
Вы не можете удалять свои сообщения
Вы не можете голосовать в опросах
Вы не можете прикреплять файлы к сообщениям
Вы не можете скачивать файлы