Ларго Винч: Дилогия / Largo Winch: Dilogy (2008-2011) BDRip 1080p

 
Автор Сообщение

sergej644 ®

Пол:

Стаж: 4 года 11 месяцев

Сообщений: 6044

Откуда: Soviet Union



Награды: Нет

Торрент-статистика

Создавать темы 21-Янв-2015 00:14

[Цитировать]

Жанр: триллер, приключения
Год выпуска: 2008/2011
Продолжительность: 01:48:51 | 01:58:34
Режиссёр: Жером Салль

Ларго Винч: Начало / Largo Winch (2008) BDRip 1080p

Информация о фильме
Название: Ларго Винч: Начало
Оригинальное название: Largo Winch
Год выхода: 2008
Жанр: триллер, приключения
Режиссер: Жером Салль
В ролях: Томер Сислей, Кристин Скотт Томас, Мики Манойлович, Мелани Тьерри, Жильбер Мелки, Карел Роден, Стивен Вэддингтон, Энн Консиньи, Радивойе Буквич, Николас Воде
О фильме:
Ларго Винч — сирота, усыновленный миллиардером, его приемный отец погибает при загадочных обстоятельствах. В 26 лет Ларго наследует огромную корпорацию и миллиардное состояние. Теперь он — владелец заводов, газет, пароходов. Но большие деньги — большие проблемы. Ларго Винч попадает в первые списки Форбс, и в черные списки конкурентов, на него точат зуб компаньоны и даже самые верные друзья готовы предать. Ларго Винч — принимает бой. Красавец, бунтарь, воин-одиночка — готов пройти огонь, воду и медные трубы, чтобы противостоять заговору и восстановить справедливость.

Выпущено: Франция, Бельгия
Продолжительность: 01:48:50
Перевод: Дублированный + Оригинал
Файл
Кодек: x264
Качество: BDRip 1080p
Видео: 1920x820, 8930 Kbps, 23.976 fps
Аудио #1: AC-3, 6 ch, 640 kbps (Rus)
Аудио #2: AC-3, 6 ch, 640 kbps (Eng)
Субтитры: русские

MI

Общее
Уникальный идентификатор : 198995105543232364256085565363127417185 (0x95B510317E81570DB54AF21AC1C97961)
Полное имя : Ларго Винч. Начало.2008.BDRip.1080p.Rus.Eng.mkv
Формат : Matroska
Версия формата : Version 2
Размер файла : 7,76 Гбайт
Продолжительность : 1 ч. 48 м.
Общий поток : 10,2 Мбит/сек
Название фильма : Ларго Винч: Начало.2008
Дата кодирования : UTC 2014-06-02 16:16:51
Программа кодирования : mkvmerge v5.8.0 ('No Sleep / Pillow') built on Sep 2 2012 15:37:04
Библиотека кодирования : libebml v1.2.3 + libmatroska v1.3.0
Обложка : Yes
Видео
Идентификатор : 1
Формат : AVC
Формат/Информация : Advanced Video Codec
Профиль формата : High@L4.1
Параметр CABAC формата : Да
Параметр ReFrames формата : 5 кадров
Идентификатор кодека : V_MPEG4/ISO/AVC
Продолжительность : 1 ч. 48 м.
Битрейт : 8930 Кбит/сек
Ширина : 1920 пикселей
Высота : 820 пикселей
Соотношение сторон : 2,35:1
Режим частоты кадров : Постоянный
Частота кадров : 23,976 кадра/сек
Цветовое пространство : YUV
Субдискретизация насыщенности : 4:2:0
Битовая глубина : 8 бит
Тип развёртки : Прогрессивная
Бит/(Пиксели*Кадры) : 0.237
Размер потока : 6,64 Гбайт (85%)
Заголовок : Rip by Boriy
Библиотека кодирования : x264 core 142 r2431 ac76440
Настройки программы : cabac=1 / ref=5 / deblock=1:-3:-3 / analyse=0x3:0x113 / me=umh / subme=11 / psy=1 / psy_rd=1.00:0.00 / mixed_ref=1 / me_range=32 / chroma_me=1 / trellis=2 / 8x8dct=1 / cqm=0 / deadzone=21,11 / fast_pskip=0 / chroma_qp_offset=-2 / threads=12 / lookahead_threads=1 / sliced_threads=0 / nr=0 / decimate=0 / interlaced=0 / bluray_compat=0 / constrained_intra=0 / bframes=6 / b_pyramid=2 / b_adapt=2 / b_bias=0 / direct=3 / weightb=1 / open_gop=0 / weightp=2 / keyint=240 / keyint_min=23 / scenecut=40 / intra_refresh=0 / rc=2pass / mbtree=0 / bitrate=8930 / ratetol=1.0 / qcomp=0.60 / qpmin=0 / qpmax=69 / qpstep=4 / cplxblur=20.0 / qblur=0.5 / ip_ratio=1.40 / pb_ratio=1.30 / aq=1:0.80
Язык : English
Default : Да
Forced : Нет
Аудио #1
Идентификатор : 2
Формат : AC-3
Формат/Информация : Audio Coding 3
Расширение режима : CM (complete main)
Параметр Endianness формата : Big
Идентификатор кодека : A_AC3
Продолжительность : 1 ч. 48 м.
Вид битрейта : Постоянный
Битрейт : 640 Кбит/сек
Каналы : 6 каналов
Расположение каналов : Front: L C R, Side: L R, LFE
Частота : 48,0 КГц
Битовая глубина : 16 бит
Метод сжатия : С потерями
Размер потока : 498 Мбайт (6%)
Заголовок : Дубляж
Язык : Russian
Default : Да
Forced : Нет
Аудио #2
Идентификатор : 3
Формат : AC-3
Формат/Информация : Audio Coding 3
Расширение режима : CM (complete main)
Параметр Endianness формата : Big
Идентификатор кодека : A_AC3
Продолжительность : 1 ч. 48 м.
Вид битрейта : Постоянный
Битрейт : 640 Кбит/сек
Каналы : 6 каналов
Расположение каналов : Front: L C R, Side: L R, LFE
Частота : 48,0 КГц
Битовая глубина : 16 бит
Метод сжатия : С потерями
Размер потока : 498 Мбайт (6%)
Заголовок : Оригинал
Язык : English
Default : Нет
Forced : Нет
Текст
Идентификатор : 4
Формат : UTF-8
Идентификатор кодека : S_TEXT/UTF8
Идентификатор кодека/Информация : UTF-8 Plain Text
Язык : Russian
Default : Нет
Forced : Нет
Меню
00:00:00.000 : :Chapter 1
00:03:50.355 : :Chapter 2
00:06:18.336 : :Chapter 3
00:14:37.376 : :Chapter 4
00:20:42.324 : :Chapter 5
00:26:02.978 : :Chapter 6
00:30:07.430 : :Chapter 7
00:37:27.161 : :Chapter 8
00:42:20.788 : :Chapter 9
00:46:20.611 : :Chapter 10
00:52:12.462 : :Chapter 11
00:55:54.601 : :Chapter 12
01:03:09.869 : :Chapter 13
01:07:20.244 : :Chapter 14
01:14:27.379 : :Chapter 15
01:19:54.039 : :Chapter 16
01:23:42.684 : :Chapter 17
01:28:33.308 : :Chapter 18
01:37:37.309 : :Chapter 19
01:42:41.113 : :Chapter 20
-

Ларго Винч: Заговор в Бирме / Largo Winch 2 (2011) BDRip 1080p

Информация о фильме
Название: Ларго Винч 2: Заговор в Бирме
Оригинальное название: Largo Winch (Tome 2)
Год выхода: 2011
Жанр: триллер, приключения
Режиссер: Жером Салль
В ролях: Томер Сислей, Шэрон Стоун, Ульрих Тукур, Напакпапха Накпраситте, Оливье Бартелеми, Лоран Терзиефф, Николас Воде, Клеменс Шик, Франсуа Монтагю, Нирут Сиричанья
О фильме:
После убийства приёмного отца Ларго Винч становится президентом группы компаний «W Group». Но роль управленца огромной корпорации не подходит Ларго. Он объявляет о продаже «W Group» и создании гуманитарного фонда, который возглавит старый друг его отца. В день, когда договор подписан, Ларго обвиняют в преступлениях против человечества и финансировании режима бирманского генерала Мина.
Чтобы узнать, кто стоит за ложными обвинениями, Ларго Винч отправляется в Бирму и встречает там свою бывшую возлюбленную Малунай, которая поможет раскрыть заговор.

Выпущено: Франция, Бельгия, Германия
Продолжительность: 01:58:34
Перевод: Дублированный + Оригинал
Файл
Кодек: x264
Качество: BDRip 1080p
Видео: 1920x800, 8092 Kbps, 23.976 fps
Аудио #1: AC-3, 6 ch, 640 kbps (Rus)
Аудио #2: AC-3, 6 ch, 640 kbps (Eng)
Субтитры: русские, английские

MI

Общее
Уникальный идентификатор : 195647505163576005464179963885027944269 (0x933056C070EE71F789BA36B025DD674D)
Полное имя : Ларго Винч 2. Заговор в Бирме.2011.BDRip.1080p.Rus.Eng.mkv
Формат : Matroska
Версия формата : Version 2
Размер файла : 7,76 Гбайт
Продолжительность : 1 ч. 58 м.
Общий поток : 9371 Кбит/сек
Название фильма : Ларго Винч 2: Заговор в Бирме.2011
Дата кодирования : UTC 2014-06-02 16:04:04
Программа кодирования : mkvmerge v5.8.0 ('No Sleep / Pillow') built on Sep 2 2012 15:37:04
Библиотека кодирования : libebml v1.2.3 + libmatroska v1.3.0
Обложка : Yes
Видео
Идентификатор : 1
Формат : AVC
Формат/Информация : Advanced Video Codec
Профиль формата : High@L4.1
Параметр CABAC формата : Да
Параметр ReFrames формата : 5 кадров
Идентификатор кодека : V_MPEG4/ISO/AVC
Продолжительность : 1 ч. 58 м.
Битрейт : 8092 Кбит/сек
Ширина : 1920 пикселей
Высота : 800 пикселей
Соотношение сторон : 2,40:1
Режим частоты кадров : Постоянный
Частота кадров : 23,976 кадра/сек
Цветовое пространство : YUV
Субдискретизация насыщенности : 4:2:0
Битовая глубина : 8 бит
Тип развёртки : Прогрессивная
Бит/(Пиксели*Кадры) : 0.220
Размер потока : 6,55 Гбайт (84%)
Заголовок : Rip by Boriy
Библиотека кодирования : x264 core 142 r2431 ac76440
Настройки программы : cabac=1 / ref=5 / deblock=1:-3:-3 / analyse=0x3:0x113 / me=umh / subme=11 / psy=1 / psy_rd=1.00:0.00 / mixed_ref=1 / me_range=32 / chroma_me=1 / trellis=2 / 8x8dct=1 / cqm=0 / deadzone=21,11 / fast_pskip=0 / chroma_qp_offset=-2 / threads=12 / lookahead_threads=1 / sliced_threads=0 / nr=0 / decimate=0 / interlaced=0 / bluray_compat=0 / constrained_intra=0 / bframes=6 / b_pyramid=2 / b_adapt=2 / b_bias=0 / direct=3 / weightb=1 / open_gop=0 / weightp=2 / keyint=240 / keyint_min=23 / scenecut=40 / intra_refresh=0 / rc=2pass / mbtree=0 / bitrate=8092 / ratetol=1.0 / qcomp=0.60 / qpmin=0 / qpmax=69 / qpstep=4 / cplxblur=20.0 / qblur=0.5 / ip_ratio=1.40 / pb_ratio=1.30 / aq=1:0.80
Язык : English
Default : Да
Forced : Нет
Аудио #1
Идентификатор : 2
Формат : AC-3
Формат/Информация : Audio Coding 3
Расширение режима : CM (complete main)
Параметр Endianness формата : Big
Идентификатор кодека : A_AC3
Продолжительность : 1 ч. 58 м.
Вид битрейта : Постоянный
Битрейт : 640 Кбит/сек
Каналы : 6 каналов
Расположение каналов : Front: L C R, Side: L R, LFE
Частота : 48,0 КГц
Битовая глубина : 16 бит
Метод сжатия : С потерями
Размер потока : 543 Мбайт (7%)
Заголовок : Дубляж
Язык : Russian
Default : Да
Forced : Нет
Аудио #2
Идентификатор : 3
Формат : AC-3
Формат/Информация : Audio Coding 3
Расширение режима : CM (complete main)
Параметр Endianness формата : Big
Идентификатор кодека : A_AC3
Продолжительность : 1 ч. 58 м.
Вид битрейта : Постоянный
Битрейт : 640 Кбит/сек
Каналы : 6 каналов
Расположение каналов : Front: L C R, Side: L R, LFE
Частота : 48,0 КГц
Битовая глубина : 16 бит
Метод сжатия : С потерями
Размер потока : 543 Мбайт (7%)
Заголовок : Оригинал
Язык : English
Default : Нет
Forced : Нет
Текст #1
Идентификатор : 4
Формат : UTF-8
Идентификатор кодека : S_TEXT/UTF8
Идентификатор кодека/Информация : UTF-8 Plain Text
Язык : Russian
Default : Нет
Forced : Нет
Текст #2
Идентификатор : 5
Формат : UTF-8
Идентификатор кодека : S_TEXT/UTF8
Идентификатор кодека/Информация : UTF-8 Plain Text
Язык : English
Default : Нет
Forced : Нет
Меню
00:00:00.000 : :Chapter 1
00:03:13.067 : :Chapter 2
00:09:13.886 : :Chapter 3
00:13:27.348 : :Chapter 4
00:22:39.775 : :Chapter 5
00:32:07.759 : :Chapter 6
00:42:31.340 : :Chapter 7
00:52:20.262 : :Chapter 8
01:03:29.013 : :Chapter 9
01:12:31.220 : :Chapter 10
01:18:54.062 : :Chapter 11
01:26:34.022 : :Chapter 12
01:32:53.149 : :Chapter 13
01:40:49.543 : :Chapter 14
01:49:24.849 : :Chapter 15
01:52:41.254 : :Chapter 16
[Профиль] [ЛС]
Кто просматривает тему:

Показать сообщения:    

Текущее время: Сегодня 14:28

Часовой пояс: GMT



Вы не можете начинать темы
Вы не можете отвечать на сообщения
Вы не можете редактировать свои сообщения
Вы не можете удалять свои сообщения
Вы не можете голосовать в опросах
Вы не можете прикреплять файлы к сообщениям
Вы не можете скачивать файлы