Ланцет [01-16 из 16] (2018) WEBRip

 
Автор Сообщение

BOSS ®

Пол:

Стаж: 4 года 4 месяца

Сообщений: 13429

Откуда: ODESSA



Награды: 22 (Подробнее)

Mega Seeder 2 (Количество: 1) Top Keeper 1 (Количество: 1) Top Keeper 4 (Количество: 1)
Торрент-статистика

Создавать темы 10-Фев-2019 14:44

[Цитировать]

Информация о фильме
Оригинальное название: Ланцет
Год выпуска: 2018
Жанр: Детектив, драма, мелодрама
Выпущено: Россия, «Марс Медиа», «Амедиа Продакшн»
Режиссер: Елена Николаева
В ролях: Павел Трубинер, Борис Каморзин, Евгения Симонова, Полина Агуреева, Иван Жидков, Софья Синицына, Григорий Зельцер, Иван Агапов, Дмитрий Калязин, Артемий Шаффер, Александр Сергеев (IV), Наталья Высочанская, Антон Косточкин, Сергей Долготович, Олег Чудницов, Александр Пугачёв (II), Алексей Кирсанов, Александр Касаткин (II), Анастасия Дубровина, Алла Криницына, Владимир Чуприков, Виталия Корниенко, Алексей Кирилин, Мария Бортник, Александр Хованский (II), Иван Рудаков, Надежда Иванко, Екатерина Гудина, Анна Галлямова, Эрик Яралов, Ксения Ильясова, Александр Обласов, Михаил Хмуров
О фильме: Кардиохирург Илья Ладынин по прозвищу "Ланцет", полученному еще в мединституте за страсть к хирургии, находится на грани отчаяния: жена скоропостижно скончалась, сын винит его в смерти матери и переезжает к бабушке. Только работа способна «вылечить», но сбывается самый страшный кошмар любого хирурга — у Ильи начинается тремор рук. Ладынин теряет пациента и больше не может оперировать. Он уже готов уйти из медицины, но получает неожиданное предложение – возглавить подразделение больницы, занимающееся внутренними расследованиями. Илья решает, что новое назначение поможет разобраться в том, что пошло не так в лечении его жены.

Качество: WEBRip
Видео: XviD build 73, 720x400 (16:9), 25.000 fps, ~ 1320 Kbps (~ 0.183 bit/pixel)
Аудио: 48.0 kHz, AC3, 2/0 ch, 192 kbps
Продолжительность: 16 x ~ 00:50:00
Перевод: Не требуется
Cубтитры: нет

Скриншоты

MediaInfo

General
Complete name : D:RazdachiLancet.2018.WEBRip.GeneralFilmLancet.e01.avi
Format : AVI
Format/Info : Audio Video Interleave
File size : 558 MiB
Duration : 51 min 3 s
Overall bit rate : 1 527 kb/s
Writing application : VirtualDubMod 1.5.10.3 | www.virtualdub-fr.org || (build 2550/release)
Writing library : VirtualDubMod build 2550/release
Video
ID : 0
Format : MPEG-4 Visual
Format profile : Advanced Simple@L5
Format settings : BVOP1 / Custom Matrix
Format settings, BVOP : 1
Format settings, QPel : No
Format settings, GMC : No warppoints
Format settings, Matrix : Custom
Codec ID : XVID
Codec ID/Hint : XviD
Duration : 51 min 3 s
Bit rate : 1 325 kb/s
Width : 720 pixels
Height : 400 pixels
Display aspect ratio : 16:9
Frame rate : 25.000 FPS
Color space : YUV
Chroma subsampling : 4:2:0
Bit depth : 8 bits
Scan type : Progressive
Compression mode : Lossy
Bits/(Pixel*Frame) : 0.184
Stream size : 484 MiB (87%)
Writing library : XviD 73
Audio
ID : 1
Format : AC-3
Format/Info : Audio Coding 3
Commercial name : Dolby Digital
Codec ID : 2000
Duration : 51 min 3 s
Bit rate mode : Constant
Bit rate : 192 kb/s
Channel(s) : 2 channels
Channel layout : L R
Sampling rate : 48.0 kHz
Frame rate : 31.250 FPS (1536 SPF)
Bit depth : 16 bits
Compression mode : Lossy
Stream size : 70.1 MiB (13%)
Alignment : Split accross interleaves
Interleave, duration : 40 ms (1.00 video frame)
Interleave, preload duratio : 500 ms
Service kind : Complete Main
[Профиль] [ЛС]
Показать сообщения:    

Текущее время: Сегодня 08:19

Часовой пояс: GMT



Вы не можете начинать темы
Вы не можете отвечать на сообщения
Вы не можете редактировать свои сообщения
Вы не можете удалять свои сообщения
Вы не можете голосовать в опросах
Вы не можете прикреплять файлы к сообщениям
Вы не можете скачивать файлы