Ладья / The Rook (Сезон 1 , Серия 1-8 из 8) (Чина Му-Ен, Кари Скогланд) [2019,Фэнтези,Драма,Триллер,WEB-DLRip 720p] [LostFilm+TVShows+Amedia+HDRezka+ENG]+[Subs Rus , ENG]

 
Author Message

Враг Нароода ®

Gender:

Longevity: 4 years 6 months

Posts: 308



: 2 ()

За внесенный вклад в развитие сайта (1) Mega Seeder 1 (1)
Торрент-статистика

Post 06-Jul-2019 15:41

[Quote]

-- --Ладья / The Rook Сезон 1 , Серия 1-8 из 8 -- --Год выпуска: 2019
Выпущено: США , Carpool Entertainment, Lionsgate, Character 7
Жанр: Фэнтези,Драма,Триллер
Продолжительность: 00:50:00
Сезон: 1
Серия:1-8
Количество серий в сезоне:8--Озвучка #1: Профессиональный многоголосый - LostFilm - Русский
Озвучка #2: Профессиональный многоголосый - TVShows - Русский
Озвучка #3: Профессиональный многоголосый - Amedia - Русский
Озвучка #3: Профессиональный многоголосый - HDRezka - Русский
Озвучка #4: Профессиональный многоголосый -Английский - Оригинал
Субтитры: Russian , English, English SDH
--Релиз Без Рекламы --MDB 6.5 Кинопоиск 6.2--Режиссеры:
Чина Му-Ен, Кари Скогланд, Суну Гонера, Ребекка Джонсон--В ролях: : Эмма Гринвелл, Джоэли Ричардсон, Джон Флетчер, Ронан Рафтери, Катрин Стэдмен, Адриан Лестер, Оливия Манн, Рут Маделей, Джошуа Сквайр, Тэмсин Топольски-- Сверхспособности — это не только геройство в духе «Людей Икс», но и проблемы со спецслужбами. Так, по крайней мере, обстоят дела у главной героини сериала от Starz «Ладья» Мифанви Томас (Эмма Гринвелл из «Бесстыжих»). В комплекте с суперсилой ей досталась амнезия: однажды проснувшись в парке среди трупов, она вынуждена самостоятельно выяснить, кто запустил цепь таинственных убийств. И это не так-то просто, когда находишься под прицелом секретной организации. Основанная на успешном романе Дэниела О’Мэлли, «Ладья» — лихо задуманный сплав триллера, драмы и фэнтези, пытающийся сказать что-то новое в жанре историй о супергероях. Кстати, о них: на втором плане в сериале можно увидеть Оливию Манн, звезду тех самых «Людей Икс».-- --Качество :WEB-DLRip 720p
Формат: MKV
Видео кодек: H264
Видео: 3265Кбит/сек,1280х720(16.9),в 23.976кадр/сек,AVC (High@L3.1)(CABAC/4 Ref Frames)--Аудио Кодек:AC3
Аудио #1:AC3 640 Kbps, 48.0 KHz, 6 ch- Lostfilm -Русский
Аудио #2:AC3 384 Kbps, 48.0 KHz, 6 ch-TVShows -Русский
Аудио #3:AC3 384 Kbps, 48.0 KHz, 6 ch-Amedia -Русский
Аудио #4:AC3 384 Kbps, 48.0 KHz, 6 ch-HDRezka -Русский
Аудио #5: AC3, 640 Kbps, 48.0 KHz,6 ch - - English - Оригинал--

Доп. информация:

Звуковая дорожка сделана путем наложения чистого голоса озвучивателей на центральный канал оригинальной дорожки. Качество идентично звуковой дорожке.
---

Список эпизодов сезона


1 сезон 1 серия - Глава 1 - Chapter 1
1 сезон 2 серия - Глава 2 - Chapter 2
1 сезон 3 серия - Глава 3 - Chapter 3
1 сезон 4 серия - Глава 4 - Chapter 4
1 сезон 5 серия - Глава 5 - Chapter 5
1 сезон 6 серия - Глава 6 - Chapter 6
1 сезон 7 серия - Пролог - Prologue
1 сезон 8 серия - Глава 8 - Chapter 8
--

MediaInfo сезона

Общее
Уникальный идентификатор : 20403033053998788495364279326805835567 (0xF597B31FCDA638B591534BDFE23BF2F)
Полное имя : C:\Users\Russian Patriot\Downloads\Ладья - The Rook\The_Rook_2019_S01_Н264_DD5.1_N.B_HD_720_3xRus_Eng\The_Rook_2019_S01E01_Н264_DD5.1_N.B_HD_720_3xRus_Eng.mkv
Формат : Matroska
Версия формата : Version 4
Размер файла : 2,02 Гбайт
Продолжительность : 50 м. 46 с.
Общий поток : 5700 Кбит/сек
Название фильма : The Rook 2019 S01E01 @ Nikolai.Baranov & PIRATIYA
Дата кодирования : UTC 2019-07-14 07:36:05
Программа кодирования : mkvmerge v35.0.0 ('All The Love In The World') 64-bit
Библиотека кодирования : libebml v1.3.9 + libmatroska v1.5.2
Видео
Идентификатор : 1
Формат : AVC
Формат/Информация : Advanced Video Codec
Профиль формата : High@L3.1
Настройки формата : CABAC / 4 Ref Frames
Параметр CABAC формата : Да
Параметр RefFrames формата : 4 кадра
Идентификатор кодека : V_MPEG4/ISO/AVC
Продолжительность : 50 м. 46 с.
Вид битрейта : Постоянный
Битрейт : 3265 Кбит/сек
Номинальный битрейт : 6000 Кбит/сек
Ширина : 1280 пикселей
Высота : 720 пикселей
Соотношение сторон : 16:9
Режим частоты кадров : Постоянный
Частота кадров : 23,976 (24000/1001) кадра/сек
Цветовое пространство : YUV
Субдискретизация насыщенности : 4:2:0
Битовая глубина : 8 бит
Тип развёртки : Прогрессивная
Бит/(Пиксели*Кадры) : 0.148
Размер потока : 1,16 Гбайт (57%)
Заголовок : The_Rook_2019_S01E01_Н264_DD5.1_N.B_HD_720_3xRus_Eng
Язык : Russian
Default : Да
Forced : Нет
Цветовой диапазон : Limited
Основные цвета : BT.709
Характеристики трансфера : BT.709
Коэффициенты матрицы : BT.709
Аудио #1
Идентификатор : 6
Формат : AC-3
Формат/Информация : Audio Coding 3
Коммерческое название : Dolby Digital
Идентификатор кодека : A_AC3
Продолжительность : 50 м. 45 с.
Вид битрейта : Постоянный
Битрейт : 640 Кбит/сек
Каналы : 6 каналов
ChannelLayout : L R C LFE Ls Rs
Частота : 48,0 КГц
Частота кадров : 31,250 кадров/сек (1536 SPF)
Битовая глубина : 16 бит
Метод сжатия : С потерями
Размер потока : 232 Мбайт (11%)
Заголовок : MVO LostFilm @DD5.1 AC3, 640 Kbps, 48.0 KHz, 6 ch
Язык : Russian
ServiceKind/String : Complete Main
Default : Да
Forced : Нет
Аудио #2
Идентификатор : 7
Формат : AC-3
Формат/Информация : Audio Coding 3
Коммерческое название : Dolby Digital
Идентификатор кодека : A_AC3
Продолжительность : 50 м. 46 с.
Вид битрейта : Постоянный
Битрейт : 384 Кбит/сек
Каналы : 6 каналов
ChannelLayout : L R C LFE Ls Rs
Частота : 48,0 КГц
Частота кадров : 31,250 кадров/сек (1536 SPF)
Битовая глубина : 16 бит
Метод сжатия : С потерями
Размер потока : 139 Мбайт (7%)
Заголовок : MVO Amedia @DD5.1 AC3, 384 Kbps, 48.0 KHz, 6 ch
Язык : Russian
ServiceKind/String : Complete Main
Default : Нет
Forced : Нет
Аудио #3
Идентификатор : 8
Формат : AC-3
Формат/Информация : Audio Coding 3
Коммерческое название : Dolby Digital
Идентификатор кодека : A_AC3
Продолжительность : 50 м. 46 с.
Вид битрейта : Постоянный
Битрейт : 384 Кбит/сек
Каналы : 6 каналов
ChannelLayout : L R C LFE Ls Rs
Частота : 48,0 КГц
Частота кадров : 31,250 кадров/сек (1536 SPF)
Битовая глубина : 16 бит
Метод сжатия : С потерями
Размер потока : 139 Мбайт (7%)
Заголовок : MVO TVShows @DD5.1 AC3, 384 Kbps, 48.0 KHz, 6 ch
Язык : Russian
ServiceKind/String : Complete Main
Default : Нет
Forced : Нет
Аудио #4
Идентификатор : 9
Формат : AC-3
Формат/Информация : Audio Coding 3
Коммерческое название : Dolby Digital
Идентификатор кодека : A_AC3
Продолжительность : 50 м. 46 с.
Вид битрейта : Постоянный
Битрейт : 640 Кбит/сек
Каналы : 6 каналов
ChannelLayout : L R C LFE Ls Rs
Частота : 48,0 КГц
Частота кадров : 31,250 кадров/сек (1536 SPF)
Битовая глубина : 16 бит
Метод сжатия : С потерями
Размер потока : 232 Мбайт (11%)
Заголовок : Original@DD5.1 AC3 ,640 Kbps, 48.0 KHz, 6 ch
Язык : English
ServiceKind/String : Complete Main
Default : Нет
Forced : Нет
Аудио #5
Идентификатор : 10
Формат : AC-3
Формат/Информация : Audio Coding 3
Коммерческое название : Dolby Digital
Идентификатор кодека : A_AC3
Продолжительность : 50 м. 46 с.
Вид битрейта : Постоянный
Битрейт : 384 Кбит/сек
Каналы : 6 каналов
ChannelLayout : L R C LFE Ls Rs
Частота : 48,0 КГц
Частота кадров : 31,250 кадров/сек (1536 SPF)
Битовая глубина : 16 бит
Метод сжатия : С потерями
Размер потока : 139 Мбайт (7%)
Заголовок : MVO HDRezka @DD5.1 AC3, 384 Kbps, 48.0 KHz, 6 ch
Язык : Russian
ServiceKind/String : Complete Main
Default : Нет
Forced : Нет
Текст #1
Идентификатор : 2
Формат : UTF-8
Идентификатор кодека : S_TEXT/UTF8
Идентификатор кодека/Информация : UTF-8 Plain Text
Продолжительность : 30 м. 3 с.
Битрейт : 1 бит/сек
ElementCount : 7
Размер потока : 237 байт (0%)
Заголовок : Rus-Forced
Язык : Russian
Default : Да
Forced : Нет
Текст #2
Идентификатор : 3
Формат : UTF-8
Идентификатор кодека : S_TEXT/UTF8
Идентификатор кодека/Информация : UTF-8 Plain Text
Продолжительность : 48 м. 33 с.
Битрейт : 55 бит/сек
ElementCount : 398
Размер потока : 19,6 Кбайт (0%)
Заголовок : Rus
Язык : Russian
Default : Нет
Forced : Нет
Текст #3
Идентификатор : 4
Формат : UTF-8
Идентификатор кодека : S_TEXT/UTF8
Идентификатор кодека/Информация : UTF-8 Plain Text
Продолжительность : 48 м. 37 с.
Битрейт : 50 бит/сек
ElementCount : 718
Размер потока : 18,1 Кбайт (0%)
Заголовок : Original - SDH
Язык : English
Default : Нет
Forced : Нет
Текст #4
Идентификатор : 5
Формат : UTF-8
Идентификатор кодека : S_TEXT/UTF8
Идентификатор кодека/Информация : UTF-8 Plain Text
Продолжительность : 45 м. 21 с.
Битрейт : 41 бит/сек
ElementCount : 439
Размер потока : 13,9 Кбайт (0%)
Заголовок : Original
Язык : English
Default : Нет
Forced : Нет
Меню
00:00:00.000 : :Глава 01 / :Глава 01 / :Глава 01 / :Глава 01 / :Глава 01 / :Глава 01 / :Глава 01 / :Глава 01 / :Глава 01 / :Глава 01
--

Скриншоты

-- --

Как закачать отдельный файл

1. Открыть торрент
2. Снять галки с тех файлов торрента, которые мы не хотим закачивать. Оставляем только на нужных нам файлах (файле).
3. Нажать О.К.
В клиенте utorrent
Инструкция
1) Открыть торрент

2) Снять галки с тех файлов торрента, которые мы не хотим закачивать:
* либо вручную, снимая с каждого файла галку( скрин №1)
* либо, нажав кнопку "Снять метки (Select None)", сняв сразу со всех файлов(скрин №2)
№1

№2

Оставляем только на нужных нам файлах (файле).

3)Нажать О.К
-- -- --Внимание!!! 19.08. 2019. РАЗДАЧА ОБНОВЛЕНА. ДОБАВЛЕНА - 7 -8-СЕРИЯ- ФИНАЛ СЕЗОНА. ОБНОВИТЕ ТОРЕНТ ФАЙЛ. ПРИЯТНОГО ПРОСМОТРА . Поблагодарить:
ЯД: 410017546713876
--Релиз от: Nikolai.Baranov & PIRATIYA -- -- -- --Время раздачи : 24/7---
[Profile] [PM]
Display posts from previous:    

The time now is: Today 11:53

All times are GMT



You cannot post new topics in this forum
You cannot reply to topics in this forum
You cannot edit your posts in this forum
You cannot delete your posts in this forum
You cannot vote in polls in this forum
You cannot attach files in this forum
You cannot download files in this forum