Ладога [01-04 из 04] (2013) HDTVRip от New-Team

 
Автор Сообщение

Белочка ®

Пол:

Стаж: 5 лет 1 месяц

Сообщений: 2089



Награды: 1 (Подробнее)

Girls (Количество: 1)
Торрент-статистика

Создавать темы 20-Ноя-2014 23:11

[Цитировать]

Страна: Россия
Производство: Мармот-фильм
Жанр: военный, драма
Год выпуска: 2013
Продолжительность: 03:25:25 (00:45:37, 00:57:36, 00:51:43, 00:50:29)
Перевод: Не требуется
Cубтитры: нет
Оригинальная аудиодорожка: русский
Режиссер: Александр Велединский
В ролях:
Ксения Раппопорт, Алексей Серебряков, Андрей Мерзликин, Дмитрий Назаров, Юрий Кузнецов, Виталий Коваленко, Яков Шамшин, Анна Блинова, Филипп Ершов, Олег Федоров, Алексей Ведерников, Юлия Ауг...
Описание:
Блокадный Ленинград. Зима 1942-го. Советская контрразведка узнает, что немцы готовят диверсию на «Дороге жизни» — единственном пути, по которому в город доставляется продовольствие и другие грузы. Скорее всего, диверсант — один из водителей «полуторок», работающих на замерзшем Ладожском озере. Найти и остановить врага должен капитан НКВД Сергиенко…- -Источник: HDTV 1080i
Качество видео: HDTVRip
Формат видео: AVI
Виде: 720x400 (16:9), 25 fps, XviD ~ 1322 kbps avg, 0.184 bit/pixel
Аудио: 48 kHz, Dolby Digital AC3 2.0, 192 kbps

MediaInfo

Общее
Полное имя : Ladoga.2013.HDTVRip_[New-team]_by_AVP_Studio4.avi
Формат : AVI
Формат/Информация : Audio Video Interleave
Размер файла : 564 Мбайт
Продолжительность : 51 м.
Общий поток : 1524 Кбит/сек
Программа кодирования : VirtualDubModRus 1.5.10.2 (build 2542/release)
Библиотека кодирования : VirtualDubMod build 2542/release
Видео
Идентификатор : 0
Формат : MPEG-4 Visual
Профиль формата : Advanced Simple@L5
Параметр BVOP формата : 1
Параметр QPel формата : Нет
Параметр GMC формата : Без точки перехода
Параметр матрицы формата : Выборочная
Идентификатор кодека : XVID
Идентификатор кодека/Подсказка : XviD
Продолжительность : 51 м.
Битрейт : 1322 Кбит/сек
Ширина : 720 пикселей
Высота : 400 пикселей
Соотношение сторон : 16:9
Частота кадров : 25,000 кадров/сек
Цветовое пространство : YUV
Субдискретизация насыщенности : 4:2:0
Битовая глубина : 8 бит
Тип развёртки : Прогрессивная
Метод сжатия : С потерями
Бит/(Пиксели*Кадры) : 0.184
Размер потока : 489 Мбайт (87%)
Библиотека кодирования : XviD 73
Аудио
Идентификатор : 1
Формат : AC-3
Формат/Информация : Audio Coding 3
Профиль формата : Dolby Digital
Расширение режима : CM (complete main)
Параметр Endianness формата : Big
Идентификатор кодека : 2000
Продолжительность : 51 м.
Вид битрейта : Постоянный
Битрейт : 192 Кбит/сек
Каналы : 2 канала
Расположение каналов : Front: L R
Частота : 48,0 КГц
Битовая глубина : 16 бит
Метод сжатия : С потерями
Размер потока : 71,0 Мбайт (13%)
Выравнивание : Разделение по промежуткам
Продолжительность промежутка : 40 мс. (1,00 видеокадр)
Время предзагрузки промежутка : 500 мс

Скриншоты

[Профиль] [ЛС]
Показать сообщения:    

Текущее время: Сегодня 01:28

Часовой пояс: GMT



Вы не можете начинать темы
Вы не можете отвечать на сообщения
Вы не можете редактировать свои сообщения
Вы не можете удалять свои сообщения
Вы не можете голосовать в опросах
Вы не можете прикреплять файлы к сообщениям
Вы не можете скачивать файлы