Лаборатория гения [s01] (2014) WEBRip 1080p от -merci-

 
Автор Сообщение

достали все ®

Пол:

Стаж: 1 год 8 месяцев

Сообщений: 6581



Награды: 12 (Подробнее)

Mega Seeder 5 (Количество: 1) Mega Releaser 1 (Количество: 1) Top Releaser 3 (Количество: 1)
Торрент-статистика

Создавать темы 28-Янв-2016 08:42

[Цитировать]

Информация о фильме
Название: Лаборатория гения
Год выпуска: 2014
Страна: Россия
Жанр: мультсериал, познавательный, детский
Продолжительность: 35 ~ 00:01:30
Перевод: Не требуется
Описание: Дня не проходит, чтобы с веселым и смешным профессором Вилли и его другом и верным помощником - роботом Робби не случился какой-то курьезный случай. То кроты перекопают всю лужайку перед домом и нужно их прогнать, то потребуется достать что-то, лежащее высоко-высоко, то уронят что-нибудь в колодец с водой... И каждый раз Вилли решает проблему не просто, а с научным подходом - он что-то изобретает. Что получается в итоге - всегда непредсказуемо и очень весело!-Доп. информация: Семпл-Качество: WEBRip 1080p
Формат: MP4
Видео: AVC - MPEG-4, High@L4, 1920x1080 (16:9), 25 fps, ~2 538 kbps, 0.049 bit/pixel
Аудио: AAC-LC, 2/0 (L,R) ch, 44,1 kHz, ~254.00 kbps avg
Субтитры: отсутствуют

Список серий

01. Свинец и золото
02. Мужчина тоже дает жизнь
03. Человек, который растет
04. Как рыба в воде
05. Взрывной эффект
06. Я верю, что умею летать
07. Двойник
08. Под тяжестью интеллекта
09. К вопросу о чуткости слуха
10. Супер Вилли
11. Что она говорит?
12. Париж-Токио-Париж
13. Машина времени
14. Альтернативная энергия
15. Что сегодня на обед?
16. Сложности телекинеза
17. Маленький маленький отпуск
18. Идеальный робот
19. Как изобретать во сне?
20. Доктор гений или Мистер дебил?
21. Про дождь и солнце
22. Межпланетный контакт
23. Свободный полёт
24. Поговори с растениями
25. Профессор-невидимка
26. Невероятная скорость
27. Машина для передачи мыслей
28. Лосьон с сюрпризом
29. Спать или не спать
30. Искусственный нос
31. Суперинтеллект
32. Ускоритель роста растений
33. Разговор с Эйнштейном
34. Пройти сквозь стену
35. На Луне как на Луне

MI

General
Complete name : 25. Профессор-невидимка. 1080p.mp4
Format : MPEG-4
Format profile : Base Media
Codec ID : isom
File size : 30.2 MiB
Duration : 1mn 30s
Overall bit rate : 2 795 Kbps
Writing application : Lavf56.1.100
Video
ID : 1
Format : AVC
Format/Info : Advanced Video Codec
Format profile : High@L4
Format settings, CABAC : Yes
Format settings, ReFrames : 3 frames
Codec ID : avc1
Codec ID/Info : Advanced Video Coding
Duration : 1mn 30s
Bit rate : 2 538 Kbps
Width : 1 920 pixels
Height : 1 080 pixels
Display aspect ratio : 16:9
Frame rate mode : Variable
Frame rate : 25.000 fps
Minimum frame rate : 22.727 fps
Maximum frame rate : 25.000 fps
Color space : YUV
Chroma subsampling : 4:2:0
Bit depth : 8 bits
Scan type : Progressive
Bits/(Pixel*Frame) : 0.049
Stream size : 27.4 MiB (91%)
Audio
ID : 2
Format : AAC
Format/Info : Advanced Audio Codec
Format profile : LC
Codec ID : 40
Duration : 1mn 30s
Bit rate mode : Constant
Bit rate : 254 Kbps
Channel(s) : 2 channels
Channel positions : Front: L R
Sampling rate : 44.1 KHz
Compression mode : Lossy
Stream size : 2.74 MiB (9%)

Скриншоты

Релиз от: -merci-
[Профиль] [ЛС]
Кто просматривает тему:

Показать сообщения:    

Текущее время: Сегодня 18:31

Часовой пояс: GMT



Вы не можете начинать темы
Вы не можете отвечать на сообщения
Вы не можете редактировать свои сообщения
Вы не можете удалять свои сообщения
Вы не можете голосовать в опросах
Вы не можете прикреплять файлы к сообщениям
Вы не можете скачивать файлы