Лабиринт / Labyrinth (1986) BDRip 1080p от HDReactor | P

 
Автор Сообщение

Russian Mafia ®

Пол:

Стаж: 1 год 8 месяцев

Сообщений: 4257



Награды: 10 (Подробнее)

За внесенный вклад в развитие сайта (Количество: 1) Mega Seeder 4 (Количество: 1) Mega Seeder 5 (Количество: 1)
Торрент-статистика

Создавать темы 21-Сен-2016 06:12

[Цитировать]

Информация о фильме
Название: Лабиринт
Оригинальное название: Labyrinth
Год выхода: 1986
Жанр: Мюзикл, фэнтези, приключения, семейный
Режиссер: Джим Хэнсон
В ролях: Дэвид Боуи, Дженнифер Коннелли, Тоби Фроуд, Шелли Томпсон, Кристофер Малкольм, Брайан Хенсон, Дэйв Гелц, Дэвид Алан Барклай, Фрэнк Оз
О фильме:
За гранью сна и яви, в полной удивительных чудес волшебной стране жил да был король гоблинов Джарет. Однажды услыхал он, как девочка Сара в сердцах сказала несносному младшему брату Тоби: «Чтоб тебя гоблины унесли!» - и тут же поймал ее на слове, утащив малыша в свой замок! «Что же я наделала», - ахнула Сара и бросилась за Джаретом вдогонку, пока дверь в сказку не захлопнулась. Но чтобы попасть в замок похитителя и спасти брата, ей придется пройти зачарованный Лабиринт. Он полон всяких чудищ, хитрых ловушек и головоломок. А выход из него стережет целая армия гоблинов! Встречая на своем пути сонмы невиданных созданий и разгадывая странные загадки, Сара храбро углубляется в таинственный мир Лабиринта, шаг за шагом приближаясь к твердыне короля Джарета…

Страна: США, Великобритания
Студия: TriStar Pictures
Продолжительность: 01:41:03
Перевод: Профессиональный многоголосый
Субтитры: Русские, английские
Сравнение трансферов
Файл
Качество: BDRip (1080p)
Видео: MPEG-4 AVC, 14,6 Мбит/с, 1920x804, 23.976 кадр/с
Аудио #1: Русский, 48 kHz, AC3, 3/2 (L,C,R,l,r) + LFE ch, ~640.00 kbps avg |Многоголосый закадровый, Лицензия R5
Аудио #2: Русский, 48 kHz, AC3, 3/2 (L,C,R,l,r) + LFE ch, ~640.00 kbps avg |Многоголосый закадровый, Superbit
Аудио #3: Английский, 48 kHz, AC3, 3/2 (L,C,R,l,r) + LFE ch, ~640.00 kbps avg

МедиаИнфо

Формат : Matroska
Версия формата : Version 2
Размер файла : 11,6 Гбайт
Продолжительность : 1 ч. 41 м.
Общий поток : 16,5 Мбит/сек
Название фильма : ~V ad~
Дата кодирования : UTC 2016-09-21 01:46:28
Программа кодирования : mkvmerge v6.5.0 ('Isn't she lovely') built on Oct 20 2013 12:50:05
Библиотека кодирования : libebml v1.3.0 + libmatroska v1.4.1
Обложка : Yes
Attachments : cover.jpg
Видео
Идентификатор : 1
Формат : AVC
Формат/Информация : Advanced Video Codec
Профиль формата : High@L4.1
Параметр CABAC формата : Да
Параметр ReFrames формата : 5 кадров
Идентификатор кодека : V_MPEG4/ISO/AVC
Продолжительность : 1 ч. 41 м.
Битрейт : 14,6 Мбит/сек
Ширина : 1920 пикселей
Высота : 804 пикселя
Соотношение сторон : 2,40:1
Режим частоты кадров : Постоянный
Частота кадров : 23,976 (24000/1001) кадра/сек
Цветовое пространство : YUV
Субдискретизация насыщенности : 4:2:0
Битовая глубина : 8 бит
Тип развёртки : Прогрессивная
Бит/(Пиксели*Кадры) : 0.394
Размер потока : 10,1 Гбайт (86%)
Заголовок : ~V~
Библиотека кодирования : x264 core 148 r2705 3f5ed56
Настройки программы : cabac=1 / ref=5 / deblock=1:-3:-3 / analyse=0x3:0x133 / me=umh / subme=11 / psy=1 / psy_rd=1.00:0.00 / mixed_ref=1 / me_range=32 / chroma_me=1 / trellis=2 / 8x8dct=1 / cqm=0 / deadzone=21,11 / fast_pskip=0 / chroma_qp_offset=-2 / threads=12 / lookahead_threads=1 / sliced_threads=0 / nr=0 / decimate=0 / interlaced=0 / bluray_compat=0 / constrained_intra=0 / bframes=10 / b_pyramid=2 / b_adapt=2 / b_bias=0 / direct=2 / weightb=1 / open_gop=0 / weightp=2 / keyint=240 / keyint_min=23 / scenecut=40 / intra_refresh=0 / rc=2pass / mbtree=0 / bitrate=14580 / ratetol=1.0 / qcomp=0.60 / qpmin=0 / qpmax=69 / qpstep=4 / cplxblur=20.0 / qblur=0.5 / ip_ratio=1.40 / pb_ratio=1.30 / aq=3:1.00
Язык : English
Default : Да
Forced : Нет
Аудио #1
Идентификатор : 2
Формат : AC-3
Формат/Информация : Audio Coding 3
Расширение режима : CM (complete main)
Параметр Endianness формата : Big
Идентификатор кодека : A_AC3
Продолжительность : 1 ч. 41 м.
Вид битрейта : Постоянный
Битрейт : 640 Кбит/сек
Каналы : 6 каналов
Расположение каналов : Front: L C R, Side: L R, LFE
Частота : 48,0 КГц
Частота кадров : 31,250 кадров/сек (1536 spf)
Метод сжатия : С потерями
Размер потока : 463 Мбайт (4%)
Заголовок : MVO[R5]
Язык : Russian
Default : Да
Forced : Да
Аудио #2
Идентификатор : 3
Формат : AC-3
Формат/Информация : Audio Coding 3
Расширение режима : CM (complete main)
Параметр Endianness формата : Big
Идентификатор кодека : A_AC3
Продолжительность : 1 ч. 41 м.
Вид битрейта : Постоянный
Битрейт : 640 Кбит/сек
Каналы : 6 каналов
Расположение каналов : Front: L C R, Side: L R, LFE
Частота : 48,0 КГц
Частота кадров : 31,250 кадров/сек (1536 spf)
Метод сжатия : С потерями
Размер потока : 463 Мбайт (4%)
Заголовок : MVO[Superbit]
Язык : Russian
Default : Нет
Forced : Нет
Аудио #3
Идентификатор : 4
Формат : AC-3
Формат/Информация : Audio Coding 3
Расширение режима : CM (complete main)
Параметр Endianness формата : Big
Идентификатор кодека : A_AC3
Продолжительность : 1 ч. 41 м.
Вид битрейта : Постоянный
Битрейт : 640 Кбит/сек
Каналы : 6 каналов
Расположение каналов : Front: L C R, Side: L R, LFE
Частота : 48,0 КГц
Частота кадров : 31,250 кадров/сек (1536 spf)
Метод сжатия : С потерями
Размер потока : 463 Мбайт (4%)
Язык : English
Default : Нет
Forced : Нет
Текст #1
Идентификатор : 5
Формат : UTF-8
Идентификатор кодека : S_TEXT/UTF8
Идентификатор кодека/Информация : UTF-8 Plain Text
Заголовок : Forc
Язык : Russian
Default : Да
Forced : Да
Текст #2
Идентификатор : 6
Формат : UTF-8
Идентификатор кодека : S_TEXT/UTF8
Идентификатор кодека/Информация : UTF-8 Plain Text
Заголовок : Full
Язык : Russian
Default : Нет
Forced : Нет
Текст #3
Идентификатор : 7
Формат : UTF-8
Идентификатор кодека : S_TEXT/UTF8
Идентификатор кодека/Информация : UTF-8 Plain Text
Язык : English
Default : Нет
Forced : Нет
Меню
00:00:00.000 : en:Start
00:04:09.207 : en:Babysit
00:11:44.537 : en:The Goblin King
00:16:57.975 : en:Left or Right?
00:22:20.756 : en:"Magic Dance"
00:28:53.523 : en:The Oubliette
00:33:11.656 : en:Crystal Ball
00:38:52.997 : en:Wiseman & Hat
00:45:05.661 : en:Door Knockers
00:50:48.378 : en:"Chilly Down"
00:57:20.019 : en:Sir Didymus
01:03:25.468 : en:"As The World Turns"
01:09:57.860 : en:The Junk Lady
01:15:50.128 : en:Castle Guards
01:24:05.999 : en:The Rolling Stones
01:30:47.567 : en:Powerless

Награды и номинации

Британская академия, 1987 год
Номинации (1):
Лучшие визуальные эффекты
Сатурн, 1987 год
Номинации (2):
Лучшие костюмы
Лучший фэнтези-фильм

Скриншоты


Сэмпл
Релиз от:
[Профиль] [ЛС]
Показать сообщения:    

Текущее время: Сегодня 09:05

Часовой пояс: GMT



Вы не можете начинать темы
Вы не можете отвечать на сообщения
Вы не можете редактировать свои сообщения
Вы не можете удалять свои сообщения
Вы не можете голосовать в опросах
Вы не можете прикреплять файлы к сообщениям
Вы не можете скачивать файлы