Лабиринт Фавна / El Laberinto del fauno (2006) BDRip 1080p

 
Автор Сообщение

Russian Mafia ®

Пол:

Стаж: 1 год 8 месяцев

Сообщений: 4257



Награды: 10 (Подробнее)

Mega Seeder 5 (Количество: 1) Top Releaser 2 (Количество: 1) Mega Seeder 1 (Количество: 1)
Торрент-статистика

Создавать темы 10-Окт-2015 15:43

[Цитировать]

Название: Лабиринт Фавна
Оригинальное название: El Laberinto del fauno
Год выхода: 2006
Жанр: фэнтези, драма, военный
Режиссер: Гильермо Дель Торо
В ролях: Ивана Бакероб, Серхи Лопес, Марибель Верду, Даг Джонс, Ариадна Хиль, Алех Ангуло, Маноло Соло, Рожер Казамажор
О фильме:
Испания, 1944 год. Группа повстанцев сражается с фашистами в горных лесах северной Наварры. Офелия — 10-летняя одинокая и мечтательная девочка — переезжает со своей беременной матерью Кармен в военный лагерь отчима капитана Видаля. Видаль — высокомерный и жестокий офицер армии Франко, который должен очистить район от повстанцев любой ценой. Офелия, увлеченная волшебными сказками, обнаруживает старинный заброшенный лабиринт неподалеку от дома.
Фея проводит ее в центр лабиринта, где она встречает Фавна, хозяина подземелья. Фавн утверждает, что знает её истинную судьбу и её тайное предназначение. Оказывается Офелия — пропавшая принцесса волшебного королевства, которую многие века разыскивает ее отец. Фавн предлагает ей возможность вернуться в волшебное королевство. Но для начала она должна пройти три испытания до наступления полнолуния. Никто не должен узнать об этом.
Время на исходе — как для Офелии, так и для отряда повстанцев. Всем придется противостоять трудностям и жестокости на пути к свободе.

Выпущено: Испания, Мексика, США
Продолжительность: 01:58:57
Перевод: Дублированный + Оригинал(Испания)
Файл
Кодек: x264
Качество: BDRip 1080p
Видео: 1920x1040, 8444 Kbps, 23.976 fps
Аудио #1: AC-3, 6 ch, 448 kbps (Rus)
Аудио #2: AC-3, 6 ch, 448 kbps (Spa)
Cубтитры: русские, испанские, английские

Скриншоты

MI

Общее
Уникальный идентификатор : 242056480051441169636119729911033508350 (0xB61A61DF7CE4D49DBEE1EBB0A53431FE)
Полное имя : Лабиринт Фавна.2006.BDRip.1080p.Rus.Spa.mkv
Формат : Matroska
Версия формата : Version 4 / Version 2
Размер файла : 7,76 Гбайт
Продолжительность : 1 ч. 58 м.
Общий поток : 9340 Кбит/сек
Название фильма : Лабиринт Фавна.2006
Дата кодирования : UTC 2010-02-22 21:41:31
Программа кодирования : mkvmerge v5.8.0 ('No Sleep / Pillow') built on Nov 13 2012 19:43:22
Библиотека кодирования : libebml v1.3.0 + libmatroska v1.4.0
Видео
Идентификатор : 1
Формат : AVC
Формат/Информация : Advanced Video Codec
Профиль формата : High@L4.1
Параметр CABAC формата : Да
Параметр ReFrames формата : 4 кадра
Идентификатор кодека : V_MPEG4/ISO/AVC
Продолжительность : 1 ч. 58 м.
Битрейт : 8444 Кбит/сек
Ширина : 1920 пикселей
Высота : 1040 пикселей
Соотношение сторон : 1,85:1
Режим частоты кадров : Постоянный
Частота кадров : 23,976 кадра/сек
Цветовое пространство : YUV
Субдискретизация насыщенности : 4:2:0
Битовая глубина : 8 бит
Тип развёртки : Прогрессивная
Бит/(Пиксели*Кадры) : 0.176
Размер потока : 6,86 Гбайт (88%)
Заголовок : Rip by Boriy
Библиотека кодирования : x264 core 129 r2230 1cffe9f
Настройки программы : cabac=1 / ref=4 / deblock=1:0:0 / analyse=0x3:0x113 / me=umh / subme=10 / psy=1 / psy_rd=1.00:0.10 / mixed_ref=1 / me_range=32 / chroma_me=1 / trellis=2 / 8x8dct=1 / cqm=0 / deadzone=21,11 / fast_pskip=0 / chroma_qp_offset=-3 / threads=12 / lookahead_threads=2 / sliced_threads=0 / nr=0 / decimate=0 / interlaced=0 / bluray_compat=0 / constrained_intra=0 / bframes=5 / b_pyramid=2 / b_adapt=2 / b_bias=0 / direct=3 / weightb=1 / open_gop=0 / weightp=2 / keyint=240 / keyint_min=23 / scenecut=40 / intra_refresh=0 / rc=2pass / mbtree=0 / bitrate=8444 / ratetol=1.0 / qcomp=0.60 / qpmin=0 / qpmax=69 / qpstep=4 / cplxblur=20.0 / qblur=0.5 / ip_ratio=1.40 / pb_ratio=1.30 / aq=1:0.80
Язык : English
Default : Да
Forced : Нет
Аудио #1
Идентификатор : 2
Формат : AC-3
Формат/Информация : Audio Coding 3
Расширение режима : CM (complete main)
Параметр Endianness формата : Big
Идентификатор кодека : A_AC3
Продолжительность : 1 ч. 58 м.
Вид битрейта : Постоянный
Битрейт : 448 Кбит/сек
Каналы : 6 каналов
Расположение каналов : Front: L C R, Side: L R, LFE
Частота : 48,0 КГц
Битовая глубина : 16 бит
Метод сжатия : С потерями
Размер потока : 381 Мбайт (5%)
Заголовок : Дубляж
Язык : Russian
Default : Да
Forced : Нет
Аудио #2
Идентификатор : 3
Формат : AC-3
Формат/Информация : Audio Coding 3
Расширение режима : CM (complete main)
Параметр Endianness формата : Big
Идентификатор кодека : A_AC3
Продолжительность : 1 ч. 58 м.
Вид битрейта : Постоянный
Битрейт : 448 Кбит/сек
Каналы : 6 каналов
Расположение каналов : Front: L C R, Side: L R, LFE
Частота : 48,0 КГц
Битовая глубина : 16 бит
Метод сжатия : С потерями
Размер потока : 381 Мбайт (5%)
Заголовок : Оригинал
Язык : Spanish
Default : Нет
Forced : Нет
Текст #1
Идентификатор : 4
Формат : UTF-8
Идентификатор кодека : S_TEXT/UTF8
Идентификатор кодека/Информация : UTF-8 Plain Text
Язык : Russian
Default : Нет
Forced : Нет
Текст #2
Идентификатор : 5
Формат : UTF-8
Идентификатор кодека : S_TEXT/UTF8
Идентификатор кодека/Информация : UTF-8 Plain Text
Язык : Spanish
Default : Нет
Forced : Нет
Текст #3
Идентификатор : 6
Формат : UTF-8
Идентификатор кодека : S_TEXT/UTF8
Идентификатор кодека/Информация : UTF-8 Plain Text
Язык : English
Default : Нет
Forced : Нет
Меню
00:00:00.000 : :Chapter 1
00:00:35.201 : :Chapter 2
00:09:17.723 : :Chapter 3
00:17:56.283 : :Chapter 4
00:24:38.476 : :Chapter 5
00:30:22.237 : :Chapter 6
00:38:20.047 : :Chapter 7
00:43:37.990 : :Chapter 8
00:50:23.812 : :Chapter 9
00:55:23.987 : :Chapter 10
01:02:22.697 : :Chapter 11
01:11:50.222 : :Chapter 12
01:18:05.722 : :Chapter 13
01:26:44.532 : :Chapter 14
01:41:36.006 : :Chapter 15
01:52:06.761 : :Chapter 16
01:58:55.044 : :Chapter 17
[Профиль] [ЛС]
Показать сообщения:    

Текущее время: Сегодня 16:25

Часовой пояс: GMT



Вы не можете начинать темы
Вы не можете отвечать на сообщения
Вы не можете редактировать свои сообщения
Вы не можете удалять свои сообщения
Вы не можете голосовать в опросах
Вы не можете прикреплять файлы к сообщениям
Вы не можете скачивать файлы