К чёрту на рога / Quo vado? (2016) HDRip | Line

 
Автор Сообщение

достали все ®

Пол:

Стаж: 1 год 8 месяцев

Сообщений: 6581



Награды: 12 (Подробнее)

Mega Seeder 5 (Количество: 1) Top Releaser 3 (Количество: 1) За внесенный вклад в развитие сайта (Количество: 1)
Торрент-статистика

Создавать темы 07-Сен-2016 03:35

[Цитировать]

К чёрту на рога / Quo vado?
Страна: Италия
Производство: Taodue Film S.r.l., Medusa Film S.p.a.
Год выпуска: 2016
Жанр: комедия
Продолжительность: 01:28:02
Режиссер: Дженнаро Нунцианте
Авторы сценария: Дженнаро Нунцианте, Кекко Дзалоне
В ролях: Кекко Дзалоне, Элеонора Джованарди, Соня Бергамаско, Маурицио Микели, Лино Банфи, Людовика Модуньо, Антонино Брускетта, Паоло Пьеробон
Описание: 15 лет верой и правдой служил Кекко своему народу — с утра до ночи, не жалея сил, просиживал штаны в Управлении охоты и рыболовства. Положение, зарплата, куча бонусов, включая милые подарки от посетителей: не жизнь, а сказка. Но пришла беда, откуда не ждали, — в министерстве решили сократить штаты, предложив чиновникам хорошее выходное пособие. Ну, а тем, кто заартачится — добро пожаловать в командировку «к чёрту на рога». Упрямец Кекко не захотел расставаться с дорогой его сердцу госслужбой — и начался полный приключений период в жизни бюрократа-бездельника. Уж чего только реформаторы не придумывали, чтобы от него избавиться, в какие только медвежьи углы Италии его не посылали — всё бестолку. И тогда министерские изверги отправили Кекко на Северный полюс, думали — в наказание, а оказалось — навстречу сумасшедшей любви...

Перевод: Профессиональный (полное дублирование) | чистый звук
Субтитры: нет-Качество: HDRip
Формат: АVI
Видео кодек: XviD
Аудио кодек: АС3
Видео: 720x304 (2.35:1), 23.976 fps, XviD ~1 679 kbps avg
Аудио: 48.0 kHz, AC3 Dolby Digital, 2/0 (L,R) ch, ~448 kbps
Дата премьеры (мир): 1 января 2016
Дата премьеры (РФ): 11 августа 2016, «Cinema Prestige»

Media Info

General
Complete name : Quo.Vado.2016.D.HDRip.14OOMB_KOSHARA.avi
Format : AVI
Format/Info : Audio Video Interleave
File size : 1.37 GiB
Duration : 1h 28mn
Overall bit rate : 2 224 Kbps
Writing application : VirtualDubMod 1.5.10.2 (build 2540/release)
Writing library : VirtualDubMod build 2540/release
Video #0
ID : 0
Format : MPEG-4 Visual
Format profile : Advanced Simple@L5
Format settings, BVOP : 2
Format settings, QPel : No
Format settings, GMC : No warppoints
Format settings, Matrix : Custom
Codec ID : XVID
Codec ID/Hint : XviD
Duration : 1h 28mn
Bit rate : 1 679 Kbps
Width : 720 pixels
Height : 304 pixels
Display aspect ratio : 2.35:1
Frame rate : 23.976 fps
Color space : YUV
Chroma subsampling : 4:2:0
Bit depth : 8 bits
Scan type : Progressive
Compression mode : Lossy
Bits/(Pixel*Frame) : 0.320
Stream size : 1.03 GiB (75%)
Writing library : XviD 1.2.1 (UTC 2008-12-04)
Audio #1
ID : 1
Format : AC-3
Format/Info : Audio Coding 3
Mode extension : CM (complete main)
Format settings, Endianness : Big
Codec ID : 2000
Duration : 1h 28mn
Bit rate mode : Constant
Bit rate : 448 Kbps
Channel(s) : 2 channels
Channel positions : Front: L R
Sampling rate : 48.0 KHz
Compression mode : Lossy
Stream size : 282 MiB (20%)
Alignment : Split accross interleaves

Скриншоты

[Профиль] [ЛС]
Кто просматривает тему:

Показать сообщения:    

Текущее время: Сегодня 12:11

Часовой пояс: GMT



Вы не можете начинать темы
Вы не можете отвечать на сообщения
Вы не можете редактировать свои сообщения
Вы не можете удалять свои сообщения
Вы не можете голосовать в опросах
Вы не можете прикреплять файлы к сообщениям
Вы не можете скачивать файлы