К черту на рога / Quo vado? (2016) BDRip 1080p | iTunes

 
Автор Сообщение

BOSS ®

Пол:

Стаж: 2 года 1 месяц

Сообщений: 3704

Откуда: ODESSA



Награды: 20 (Подробнее)

Top Seeder 5 (Количество: 1) Top Releaser 2 (Количество: 1) Top Seeder 4 (Количество: 1)
Торрент-статистика

Создавать темы 02-Окт-2016 19:30

[Цитировать]

Название: К черту на рога
Оригинальное название: Quo vado?
Год выхода: 2016
Страна: Италия
Студия: Medusa Film, Taodue Film
Продолжительность: 01:27:32
Жанр: комедия, ...
Режиссер: Дженнаро Нунцианте
В ролях: Кекко Дзалоне, Элеонора Джованарди, Соня Бергамаско, Маурицио Микели, Лино Банфи, Людовика Модуньо, Антонино Брускетта, Паоло Пьеробон, Азурра Мартино, ...
Перевод: Профессиональный (дублированный) iTunes
О фильме: 15 лет верой и правдой служил Кекко своему народу — с утра до ночи, не жалея сил, просиживал штаны в Управлении охоты и рыболовства. Положение, зарплата, куча бонусов, включая милые подарки от посетителей: не жизнь, а сказка. Но пришла беда, откуда не ждали, — в министерстве решили сократить штаты, предложив чиновникам хорошее выходное пособие. Ну, а тем, кто заартачится — добро пожаловать в командировку «к черту на рога». Упрямец Кекко не захотел расставаться с дорогой его сердцу госслужбой — и начался полный приключений период в жизни бюрократа-бездельника. Уж чего только реформаторы не придумывали, чтобы от него избавиться, в какие только медвежьи углы Италии его не посылали — всё бестолку. И тогда министерские изверги отправили Кекко на Северный полюс, думали — в наказание, а оказалось — навстречу сумасшедшей любви...

Кодек: x264
Качество: BDRip 1080p
Видео: 1920x800, 9800 kbps, 23,976 fps
Аудио #1: AC-3, 6 ch, 384 kbps (Rus) - Dub iTunes
Аудио #2: DTS, 6 ch, 1509 kbps (Ita)
Субтитры: Итальянские (SDH), Английские

MediaInfo

Общее
Уникальный идентификатор : 193067335319374880716490147244511140585 (0x913F6A8E89D54F0FBB21F43DEC691AE9)
Полное имя : К чёрту на рога (Quo vado) 2016 BDRip 1080p.mkv
Формат : Matroska
Версия формата : Version 2
Размер файла : 7,09 Гбайт
Продолжительность : 1 ч. 27 м.
Режим общего битрейта : Переменный
Общий поток : 11,6 Мбит/сек
Дата кодирования : UTC 2016-10-01 13:41:14
Программа кодирования : mkvmerge v4.0.0 ('The Stars were mine') сборка от Jun 6 2010 16:18:42
Библиотека кодирования : libebml v1.0.0 + libmatroska v1.0.0
Видео
Идентификатор : 1
Формат : AVC
Формат/Информация : Advanced Video Codec
Профиль формата : High@L4.1
Параметр CABAC формата : Да
Параметр ReFrames формата : 5 кадров
Идентификатор кодека : V_MPEG4/ISO/AVC
Продолжительность : 1 ч. 27 м.
Вид битрейта : Переменный
Битрейт : 9800 Кбит/сек
Максимальный битрейт : 62,5 Мбит/сек
Ширина : 1920 пикселей
Высота : 800 пикселей
Соотношение сторон : 2,40:1
Режим частоты кадров : Постоянный
Частота кадров : 23,976 (24000/1001) кадра/сек
Цветовое пространство : YUV
Субдискретизация насыщенности : 4:2:0
Битовая глубина : 8 бит
Тип развёртки : Прогрессивная
Бит/(Пиксели*Кадры) : 0.266
Размер потока : 5,79 Гбайт (82%)
Библиотека кодирования : x264 core 148 r2665 a01e339
Настройки программы : cabac=1 / ref=5 / deblock=1:0:0 / analyse=0x3:0x113 / me=umh / subme=8 / psy=1 / psy_rd=1.00:0.00 / mixed_ref=1 / me_range=16 / chroma_me=1 / trellis=1 / 8x8dct=1 / cqm=0 / deadzone=21,11 / fast_pskip=1 / chroma_qp_offset=-2 / threads=12 / lookahead_threads=2 / sliced_threads=0 / nr=0 / decimate=1 / interlaced=0 / bluray_compat=0 / constrained_intra=0 / bframes=3 / b_pyramid=0 / b_adapt=2 / b_bias=0 / direct=3 / weightb=1 / open_gop=0 / weightp=2 / keyint=240 / keyint_min=24 / scenecut=40 / intra_refresh=0 / rc_lookahead=50 / rc=2pass / mbtree=1 / bitrate=9800 / ratetol=1.0 / qcomp=0.60 / qpmin=0 / qpmax=69 / qpstep=4 / cplxblur=20.0 / qblur=0.5 / vbv_maxrate=62500 / vbv_bufsize=62500 / nal_hrd=vbr / filler=0 / ip_ratio=1.40 / aq=1:1.00
Язык : Italian
Default : Нет
Forced : Нет
Аудио #1
Идентификатор : 2
Формат : AC-3
Формат/Информация : Audio Coding 3
Расширение режима : CM (complete main)
Параметр Endianness формата : Big
Идентификатор кодека : A_AC3
Продолжительность : 1 ч. 27 м.
Вид битрейта : Постоянный
Битрейт : 384 Кбит/сек
Каналы : 6 каналов
Расположение каналов : Front: L C R, Side: L R, LFE
Частота : 48,0 КГц
Частота кадров : 31,250 кадров/сек (1536 spf)
Метод сжатия : С потерями
Размер потока : 240 Мбайт (3%)
Заголовок : Dub iTunes
Язык : Russian
Default : Нет
Forced : Нет
Аудио #2
Идентификатор : 3
Формат : DTS
Формат/Информация : Digital Theater Systems
Режим : 16
Параметр Endianness формата : Big
Идентификатор кодека : A_DTS
Продолжительность : 1 ч. 27 м.
Вид битрейта : Постоянный
Битрейт : 1509 Кбит/сек
Каналы : 6 каналов
Расположение каналов : Front: L C R, Side: L R, LFE
Частота : 48,0 КГц
Частота кадров : 93,750 кадра/сек (512 spf)
Битовая глубина : 16 бит
Метод сжатия : С потерями
Задержка видео : 11 мс.
Размер потока : 945 Мбайт (13%)
Язык : Italian
Default : Нет
Forced : Нет
Текст #1
Идентификатор : 4
Формат : UTF-8
Идентификатор кодека : S_TEXT/UTF8
Идентификатор кодека/Информация : UTF-8 Plain Text
Язык : Italian
Default : Нет
Forced : Нет
Текст #2
Идентификатор : 5
Формат : UTF-8
Идентификатор кодека : S_TEXT/UTF8
Идентификатор кодека/Информация : UTF-8 Plain Text
Язык : English
Default : Нет
Forced : Нет

[Профиль] [ЛС]
Кто просматривает тему:

Показать сообщения:    

Текущее время: Сегодня 18:21

Часовой пояс: GMT



Вы не можете начинать темы
Вы не можете отвечать на сообщения
Вы не можете редактировать свои сообщения
Вы не можете удалять свои сообщения
Вы не можете голосовать в опросах
Вы не можете прикреплять файлы к сообщениям
Вы не можете скачивать файлы