К западу от солнечного света / West of Sunshine (2017) WEB-DL 1080p | HDRezka Studio

 
Author Message

BOSS ®

Gender:

Longevity: 4 years 7 months

Posts: 14097

Location: ODESSA



: 22 ()

Mega Seeder 2 (1) Top Releaser 5 (1) Mega Releaser 3 (1)
Торрент-статистика

Post 14-Mar-2019 19:33

[Quote]

Информация о фильме
Название: К западу от солнечного света
Оригинальное название: West of Sunshine
Год выпуска: 2017
Жанр: Драма, криминал
Режиссер: Джейсон Рафтопулос
В ролях: Дейм Хилл, Ty Perham, Артур Энджел, Кэт Стюарт, Тони Нико, Карин Фэйрфакс, Фэй Смит, Элиза Д'Соуза, Джордан Фрайзер-Трамбл, Франциско Лопез
О фильме: Джим – отец-неудачник, с ног до головы погрязший в долгах из-за своей привязанности к азартным играм. Он назанимал огромную кучу денег у разных криминальных боссов, но вернуть так и не смог. Ему дали всего один день, чтобы он расплатился с долгами, а иначе пострадает не только он, но и его семья. Вместе с этим горе-папаше ещё необходимо присматривать за маленьким сыном, который остался у него на время школьных каникул. Джим всеми силами пытается найти деньги на погашение кредита, попутно налаживая отношения с сыном, с воспитанием которого у него ничего не клеится. И это накладывает определённый отпечаток на жизнь горе-отца.

Выпущено: Австралия, Exile Entertainment
Продолжительность: 01:17:46
Перевод: Профессиональный (многоголосый, закадровый) | HDRezka Studio
Файл
Качество: WEB-DL 1080p
Контейнер: MKV
Видео: MPEG-4 AVC, 4506 Кбит/с, 1920x802, 24 кадр/с
Аудио 1: Русский: AC3, 2 ch, 192 Кбит/с - HDRezka Studio
Аудио 2: Английский: AC3, 6 ch, 384 Кбит/с - Оригинал
Субтитры: Нет
Релиз от:

Награды

Венецианский кинофестиваль, 2017 год
Номинации (1):
Венецианские горизонты - лучший фильм

Скриншоты


MediaInfo

General
Unique ID : 257011378016069045475028059728584869861 (0xC15A9745058DBE6128705F87C87787E5)
Complete name : F:West.of.Sunshine.2019.webdL.108Op.werecut.PROD.mkv
Format : Matroska
Format version : Version 4
File size : 2.76 GiB
Duration : 1 h 17 min
Overall bit rate : 5 084 kb/s
Movie name : West of Sunshine 2019 OT werecut PROD.
Encoded date : UTC 2019-03-11 11:11:34
Writing application : mkvmerge v28.0.0 ('Voice In My Head') 64-bit
Writing library : libebml v1.3.6 + libmatroska v1.4.9
Video
ID : 1
Format : AVC
Format/Info : Advanced Video Codec
Format profile : High@L4
Format settings : CABAC / 5 Ref Frames
Format settings, CABAC : Yes
Format settings, ReFrames : 5 frames
Codec ID : V_MPEG4/ISO/AVC
Duration : 1 h 17 min
Bit rate : 4 506 kb/s
Width : 1 920 pixels
Height : 802 pixels
Display aspect ratio : 2.40:1
Frame rate mode : Constant
Frame rate : 24.000 FPS
Color space : YUV
Chroma subsampling : 4:2:0
Bit depth : 8 bits
Scan type : Progressive
Bits/(Pixel*Frame) : 0.122
Stream size : 2.45 GiB (89%)
Language : English
Default : Yes
Forced : No
Color range : Limited
Color primaries : BT.709
Transfer characteristics : BT.709
Matrix coefficients : BT.709
Audio #1
ID : 2
Format : AC-3
Format/Info : Audio Coding 3
Commercial name : Dolby Digital
Codec ID : A_AC3
Duration : 1 h 17 min
Bit rate mode : Constant
Bit rate : 192 kb/s
Channel(s) : 2 channels
Channel layout : L R
Sampling rate : 48.0 kHz
Frame rate : 31.250 FPS (1536 SPF)
Bit depth : 16 bits
Compression mode : Lossy
Stream size : 107 MiB (4%)
Title : HDREZKA STUDIO
Language : Russian
Service kind : Complete Main
Default : Yes
Forced : No
Audio #2
ID : 3
Format : AC-3
Format/Info : Audio Coding 3
Commercial name : Dolby Digital
Codec ID : A_AC3
Duration : 1 h 17 min
Bit rate mode : Constant
Bit rate : 384 kb/s
Channel(s) : 6 channels
Channel layout : L R C LFE Ls Rs
Sampling rate : 48.0 kHz
Frame rate : 31.250 FPS (1536 SPF)
Bit depth : 16 bits
Compression mode : Lossy
Stream size : 214 MiB (8%)
Language : English
Service kind : Complete Main
Default : No
Forced : No
Menu
00:00:00.000 : en:1
00:10:40.000 : en:2
00:21:09.000 : en:3
00:31:08.000 : en:4
00:40:32.000 : en:5
00:50:39.000 : en:6
01:00:53.000 : en:7
01:14:30.000 : en:8
[Profile] [PM]
Кто просматривает тему:

Display posts from previous:    

The time now is: Today 07:09

All times are GMT



You cannot post new topics in this forum
You cannot reply to topics in this forum
You cannot edit your posts in this forum
You cannot delete your posts in this forum
You cannot vote in polls in this forum
You cannot attach files in this forum
You cannot download files in this forum