Кэрол / Carol (2015) BDRip 720p | iTunes

 
Автор Сообщение

Russian Mafia ®

Пол:

Стаж: 1 год 8 месяцев

Сообщений: 4253



Награды: 10 (Подробнее)

За внесенный вклад в развитие сайта (Количество: 1) Mega Seeder 2 (Количество: 1) Top Releaser 3 (Количество: 1)
Торрент-статистика

Создавать темы 10-Апр-2016 17:06

[Цитировать]

Информация о фильме
Название: Кэрол
Оригинальное название: Carol
Год выхода: 2015
Жанр: драма, мелодрама
Режиссер: Тодд Хейнс
В ролях: Кейт Бланшетт, Руни Мара, Кайл Чандлер, Джейк Лэси, Сара Полсон, Джон Магаро, Кори Майкл Смит, Кевин Краули, Ник Паич, Кэрри Браунштейн
О фильме:
Интересные и незабываемые пятидесятые годы… Нью-Йорк.
История о двух женщинах, рискнувших бросить вызов моральным устоям общества и попытавшихся найти своё счастье.
Первая героиня - Кэрол, имеет, казалось бы, в жизни всё. Есть муж, дочь, спокойная, стабильная жизнь. Но женщину давно ничего не радуется.
Её радует лишь общение с дочерью, а вот с супругом они не в ладах. Кэрол должна жить «по законам» мужа, занимая место «исполнителя его воли».
Так же, по-своему, одинока и Тереза - продавщица, с которой Кэрол как-то познакомилась в магазине, делая покупки. Девушка немного замкнутая по характеру, нерешительная, не проявляет желания знакомиться или общаться парнями. Но знакомство с Кэрол оживило её скучную жизнь, внесла нечто новое и неожиданное…

Страна: Великобритания, США
Студия: River Road Entertainment, StudioCanal, The Weinstein Company LLC
Продолжительность: 01:58:29
Перевод: Профессиональный (дублированный) iTunes Russia
Файл
Формат: Matroska
Видео: 1280x692 at 23.976 fps, x264@L4.1, ~9836 kbps avg
Аудио#1: Russian: 48 kHz, AC3, 3/2 (L,C,R,l,r) + LFE ch, ~384.00 kbps avg |Дубляж, iTunes Russia|
Аудио#2: English: 48 kHz, DTS, 3/2 (L,C,R,l,r) + LFE ch, ~1509.00 kbps avg
Субтитры: Russian, English, Romanian
***Сохранены оригинальные главы как на Blu-ray.
***Видеоряд - SbR, сборка рипа - Womanizer0.

MI

Общее
Уникальный идентификатор : 187907906592208568751824132954808875562 (0x8D5DBF14AE2430E5AA6D3AAC246F7A2A)
Полное имя : Carol.2015.720p.BluRay.x264.Rus.Eng.Subs-SbR.mkv
Формат : Matroska
Версия формата : Version 4 / Version 2
Размер файла : 9,90 Гбайт
Продолжительность : 1 ч. 58 м.
Общий поток : 12,0 Мбит/сек
Название фильма : released by aldershot
Дата кодирования : UTC 2016-04-10 11:39:58
Программа кодирования : mkvmerge v6.9.1 ('Blue Panther') 64bit built on Apr 18 2014 18:23:38
Библиотека кодирования : libebml v1.3.0 + libmatroska v1.4.1
Attachements : cover.jpg / cover.jpg
Видео
Идентификатор : 1
Формат : AVC
Формат/Информация : Advanced Video Codec
Профиль формата : High@L4.1
Параметр CABAC формата : Да
Параметр ReFrames формата : 9 кадров
Идентификатор кодека : V_MPEG4/ISO/AVC
Продолжительность : 1 ч. 58 м.
Битрейт : 9836 Кбит/сек
Ширина : 1280 пикселей
Высота : 692 пикселя
Соотношение сторон : 1,85:1
Режим частоты кадров : Постоянный
Частота кадров : 23,976 кадра/сек
Цветовое пространство : YUV
Субдискретизация насыщенности : 4:2:0
Битовая глубина : 8 бит
Тип развёртки : Прогрессивная
Бит/(Пиксели*Кадры) : 0.463
Размер потока : 8,14 Гбайт (82%)
Заголовок : SbR
Библиотека кодирования : x264 core 148 r2638+53 bb29004 t_mod_Custom [8-bit@all X86_64]
Настройки программы : cabac=1 / ref=9 / deblock=1:-3:-3 / analyse=0x3:0x133 / me=esa / subme=10 / psy=1 / fade_compensate=0.00 / psy_rd=1.00:0.05 / mixed_ref=1 / me_range=24 / chroma_me=1 / trellis=2 / 8x8dct=1 / cqm=0 / deadzone=21,11 / fast_pskip=0 / chroma_qp_offset=-3 / threads=6 / lookahead_threads=1 / sliced_threads=0 / nr=0 / decimate=1 / interlaced=0 / bluray_compat=0 / constrained_intra=0 / fgo=0 / bframes=11 / b_pyramid=2 / b_adapt=2 / b_bias=0 / direct=3 / weightb=1 / open_gop=0 / weightp=2 / keyint=250 / keyint_min=23 / scenecut=40 / intra_refresh=0 / rc_lookahead=60 / rc=crf / mbtree=0 / crf=17.5000 / qcomp=0.62 / qpmin=0:0:0 / qpmax=69:69:69 / qpstep=4 / vbv_maxrate=62500 / vbv_bufsize=78125 / crf_max=0.0 / nal_hrd=none / filler=0 / ip_ratio=1.30 / pb_ratio=1.20 / aq=1:0.65 / aq-sensitivity=10.00 / aq-factor=1.00:1.00:1.00 / aq2=0 / aq3=0
Язык : English
Default : Да
Forced : Нет
Цветовой диапазон : Limited
Основные цвета : BT.709
Характеристики трансфера : BT.709
Коэффициенты матрицы : BT.709
Аудио #1
Идентификатор : 2
Формат : AC-3
Формат/Информация : Audio Coding 3
Расширение режима : CM (complete main)
Параметр Endianness формата : Big
Идентификатор кодека : A_AC3
Продолжительность : 1 ч. 58 м.
Вид битрейта : Постоянный
Битрейт : 384 Кбит/сек
Каналы : 6 каналов
Расположение каналов : Front: L C R, Side: L R, LFE
Частота : 48,0 КГц
Метод сжатия : С потерями
Размер потока : 325 Мбайт (3%)
Заголовок : AC3 5.1 @ 384 Kbps, Дубляж, iTunes
Язык : Russian
Default : Да
Forced : Нет
Аудио #2
Идентификатор : 3
Формат : DTS
Формат/Информация : Digital Theater Systems
Режим : 16
Параметр Endianness формата : Big
Идентификатор кодека : A_DTS
Продолжительность : 1 ч. 58 м.
Вид битрейта : Постоянный
Битрейт : 1509 Кбит/сек
Каналы : 6 каналов
Расположение каналов : Front: L C R, Side: L R, LFE
Частота : 48,0 КГц
Битовая глубина : 24 бит
Метод сжатия : С потерями
Размер потока : 1,25 Гбайт (13%)
Заголовок : DTS 5.1 @ 1536 Kbps, Original
Язык : English
Default : Нет
Forced : Нет
Текст #1
Идентификатор : 4
Формат : UTF-8
Идентификатор кодека : S_TEXT/UTF8
Идентификатор кодека/Информация : UTF-8 Plain Text
Заголовок : full
Язык : Romanian
Default : Нет
Forced : Нет
Текст #2
Идентификатор : 5
Формат : UTF-8
Идентификатор кодека : S_TEXT/UTF8
Идентификатор кодека/Информация : UTF-8 Plain Text
Заголовок : full
Язык : Russian
Default : Нет
Forced : Нет
Текст #3
Идентификатор : 6
Формат : UTF-8
Идентификатор кодека : S_TEXT/UTF8
Идентификатор кодека/Информация : UTF-8 Plain Text
Заголовок : full
Язык : English
Default : Нет
Forced : Нет
Меню
00:00:00.000 : en:00:00:00.000
00:05:59.150 : en:00:05:59.150
00:13:10.039 : en:00:13:10.039
00:19:29.543 : en:00:19:29.543
00:25:16.640 : en:00:25:16.640
00:30:49.514 : en:00:30:49.514
00:37:59.652 : en:00:37:59.652
00:45:16.422 : en:00:45:16.422
00:52:17.217 : en:00:52:17.217
00:59:22.476 : en:00:59:22.476
01:06:21.728 : en:01:06:21.728
01:13:15.641 : en:01:13:15.641
01:18:26.744 : en:01:18:26.744
01:24:30.774 : en:01:24:30.774
01:31:54.759 : en:01:31:54.759
01:38:33.699 : en:01:38:33.699
01:44:20.588 : en:01:44:20.588
01:48:59.700 : en:01:48:59.700
01:52:14.603 : en:01:52:14.603
01:54:27.986 : en:01:54:27.986

Скриншоты


[Профиль] [ЛС]
Показать сообщения:    

Текущее время: Сегодня 03:12

Часовой пояс: GMT



Вы не можете начинать темы
Вы не можете отвечать на сообщения
Вы не можете редактировать свои сообщения
Вы не можете удалять свои сообщения
Вы не можете голосовать в опросах
Вы не можете прикреплять файлы к сообщениям
Вы не можете скачивать файлы