Кучерявая заложница / Tooken (Джон Мэллори Ашер / John Mallory Asher) [2015, США, комедия, WEB-DLRip] DVO

 
Автор Сообщение

TorrentFilm ®

Пол:

Стаж: 2 года

Сообщений: 7741



Награды: Нет

Торрент-статистика

Создавать темы 17-Июн-2015 17:24

[Цитировать]

Кучерявая заложница / Tooken-- Страна: США
Жанр: комедия
Год выпуска: 2015
Продолжительность: 01:20:46
Перевод: Любительский (двухголосый закадровый)
Cубтитры: нет
Режиссер: Джон Мэллори Ашер / John Mallory Asher
В ролях: Ли Тергесен, Итан Сапли, Донни Уолберг, Дженни МакКарти, Лукас Хаас, Лорен Стемайл, Рено Уилсон, Маргарет Чо, Лора Ли, Эндрю Бауэн
Описание: Кучерявая заложница - это пародия на трилогию фильмов "Заложница". Жизнь агента Брайана Миллерса (Ли Тергесен) полна лишений - он лишился работы в ЦРУ, уважения своей семьи, да и вообще - самой семьи, его бывшую жену планирует забрать наглый афро-американскей Деньго Тряс, а дочь... даже дочь может быть отнята и лишена (если она у нее еще есть) невинности. Но будто всего этого мало, во время покупки подарка на день рождения дочки, Брайан привлекает к себе внимание крупного китайско-американского гангстера (Маргарита Хо), главная цель которого - отнять всё и у всех! А все потому, что однажды, у кого-то была забрана очень ценная вещь.
Сэмпл
Качество видео: WEB-DLRip
Формат видео: AVI
Видео: 2046 Кбит/сек 720 x 304 (2.368) at 23.976 fps
Аудио: AC-3 192 Кбит/сек 2 канала, 48,0 КГц

MediaInfo

Формат : AVI
Формат/Информация : Audio Video Interleave
Размер файла : 1,38 Гбайт
Продолжительность : 1 ч. 20 м.
Общий поток : 2444 Кбит/сек
Программа кодирования : VirtualDubModRus 1.5.10.2 (build 2542/release)
Библиотека кодирования : VirtualDubMod build 2542/release
Видео
Идентификатор : 0
Формат : MPEG-4 Visual
Профиль формата : Advanced Simple@L5
Параметр BVOP формата : 2
Параметр QPel формата : Нет
Параметр GMC формата : Без точки перехода
Параметр матрицы формата : Default (H.263)
Режим смешивания : Сжатый битовый поток
Идентификатор кодека : XVID
Идентификатор кодека/Подсказка : XviD
Продолжительность : 1 ч. 20 м.
Битрейт : 2046 Кбит/сек
Ширина : 720 пикселей
Высота : 304 пикселя
Соотношение сторон : 2,35:1
Частота кадров : 23,976 кадра/сек
Цветовое пространство : YUV
Субдискретизация насыщенности : 4:2:0
Битовая глубина : 8 бит
Тип развёртки : Прогрессивная
Метод сжатия : С потерями
Бит/(Пиксели*Кадры) : 0.390
Размер потока : 1,15 Гбайт (84%)
Библиотека кодирования : XviD 73
Аудио #1
Идентификатор : 1
Формат : AC-3
Формат/Информация : Audio Coding 3
Расширение режима : CM (complete main)
Параметр Endianness формата : Big
Идентификатор кодека : 2000
Продолжительность : 1 ч. 20 м.
Вид битрейта : Постоянный
Битрейт : 192 Кбит/сек
Каналы : 2 канала
Расположение каналов : Front: L R
Частота : 48,0 КГц
Битовая глубина : 16 бит
Метод сжатия : С потерями
Размер потока : 111 Мбайт (8%)
Выравнивание : Разделение по промежуткам
Продолжительность промежутка : 42 мс. (1,00 видеокадр)
Время предзагрузки промежутка : 500 мс.
Аудио #2
Идентификатор : 2
Формат : AC-3
Формат/Информация : Audio Coding 3
Расширение режима : CM (complete main)
Параметр Endianness формата : Big
Идентификатор кодека : 2000
Продолжительность : 1 ч. 20 м.
Вид битрейта : Постоянный
Битрейт : 192 Кбит/сек
Каналы : 2 канала
Расположение каналов : Front: L R
Частота : 48,0 КГц
Битовая глубина : 16 бит
Метод сжатия : С потерями
Размер потока : 111 Мбайт (8%)
Выравнивание : Разделение по промежуткам
Продолжительность промежутка : 42 мс. (1,00 видеокадр)
Время предзагрузки промежутка : 500 мс.

Скриншот c названием фильма

Скриншоты

[Профиль] [ЛС]
Показать сообщения:    

Текущее время: Сегодня 09:04

Часовой пояс: GMT



Вы не можете начинать темы
Вы не можете отвечать на сообщения
Вы не можете редактировать свои сообщения
Вы не можете удалять свои сообщения
Вы не можете голосовать в опросах
Вы не можете прикреплять файлы к сообщениям
Вы не можете скачивать файлы