Кухня [S01-04 + Фильм] (2012-2014) WEB-DLRip от Generalfilm | КПК

 
Автор Сообщение

Белочка ®

Пол:

Стаж: 5 лет 1 месяц

Сообщений: 2089



Награды: 1 (Подробнее)

Girls (Количество: 1)
Торрент-статистика

Создавать темы 26-Ноя-2014 17:16

[Цитировать]

Информация о фильме
Оригинальное название: Кухня
Год выхода: 2012
Жанр: Комедия
Режиссер: Дмитрий Дьяченко
В ролях: Дмитрий Назаров, Марк Богатырев, Дмитрий Нагиев, Юлия Такшина, Елена Подкаминская, Марина Могилевская, Сергей Лавыгин, Никита Тарасов, Виктор Хориняк, Сергей Епишев, Ольга Кузьмина, Екатерина Кузнецова (IV), Михаил Тарабукин, Виктория Лукина, Елена Чернявская, Виталий Щанников, Сергей Беляев, Роман Индык, Евгения Храповицкая, Серафима Низовская
О фильме:
Главный герой Максим Лавров — выпускник Воронежского кулинарного колледжа — одержим мечтой: стать знаменитым шеф-поваром. Для этого он отправляется в Москву, чтобы устроиться в известнейший и популярный ресторан «Гюго», хозяином которого является «звезда» шоу-бизнеса. Шеф-повар ресторана «Гюго» — знаменитый на всю Москву Виктор Баринов. Властный, харизматичный, самодур, пьяница и игрок, но повар от бога. Арт-директор ресторана — Виктория Гончарова. Ей 30, она хитра, образованна, красива. Вся её жизнь — карьера, в ней нет места личной жизни. Сотрудники ресторана работают в условиях вечного конфликта Шеф-повара и Арт-директора. Один ставит во главу угла прекрасно приготовленную на его кухне еду. Другая — сервис и атмосферу зала ресторана, которую создает она. Именно в это заведение и попадает Максим. Парень знает себе цену и всеми способами пытается завоевать доверие шеф-повара и остаться на кухне. Однако отсутствие опыта и чрезмерное желание самоутвердиться ввергают Максима в череду коллизий, которую ему придётся преодолеть, чтобы стать частью этого мира.

Страна: Россия
Студия: YBW Group, СТС
Продолжительность: 80 x ~00:25:00
Перевод: Не требуется
Файл
Формат: MP4
Качество: WEB-DLRip | КПК
Видео: MPEG-4 AVC (x264), 640x360, ~500 kbps, 25.000 fps
Аудио: AAC LC, 44.1 KHz, 2 ch, 128 Kbps
Субтитры: Нет
СемплПорядок просмотра - 1-3 Сезоны, потом Фильм.

Информация о фильме
Оригинальное название: Кухня в Парижe
Год выпуска: 2014
Жанр: Комедия
Режиссер: Дмитрий Дьяченко (II)
В ролях: Дмитрий Назаров, Дмитрий Нагиев, Елена Подкаминская, Марина Могилевская, Марк Богатырёв, Виктор Хориняк, Ольга Кузьмина, Екатерина Кузнецова, Валерия Федорович, Жанныл Асанбекова, Елена Чернявская, Алексей Колган, Сергей Лавыгин, Сергей Епишев, Михаил Тарабукин, Никита Тарасов, Юлия Такшина, Виктория Лукина, Виталий Щанников, Сергей Беляев, Роман Индык, Евгения Храповицкая, Ольга Новосад, Серафима Низовская, Александр Карпиловский, Мария Горбань, Ирина Бразговка
О фильме:
Модный столичный ресторан «Клод Моне» процветает. Именно здесь, в родном заведении Вика и Максим хотят отпраздновать долгожданную свадьбу. Но планы меняются, когда в ресторане назначают переговоры Президентов России и Франции! Команда ресторана терпит фиаско и вынуждена отправиться в «изгнание» — в Париж. Там Шеф с Максом сталкиваются с опасными конкурентами: Шеф — с ближайшим родственником, а Максим — с красавцем Николя, который кружит Вике голову не хуже искристого шампанского! И это еще не все вызовы, которые бросает им «Город любви», ведь надо постараться спасти репутацию, накормить Президентов и преодолеть миллион препятствий a la francaise…

Страна: Россия
Студия: YBW Group, Yellow, Black & White, СТС
Продолжительность: 01:46:42
Перевод: Не требуется
Файл
Формат: MP4
Качество: HDRip | КПК
Видео: MPEG-4 AVC (x264), 640x264, ~500 kbps, 24.000 fps
Аудио: AAC LC, 48.0 KHz, 2 ch, 128 Kbps
Субтитры: Нет
Семпл

Скриншоты

MI

Complete name : E:KinoKuhnya.AVC.WEB-DLRip.KPK.GeneralfilmKuhnya.S04.2014.AVC.WEB-DLRip.KPK.GeneralfilmKuhnya.s04e20.2014.AVC.WEB-DLRip.KPK.Generalfilm.mp4
Format : MPEG-4
Format profile : Base Media
Codec ID : isom
File size : 123 MiB
Duration : 27mn 10s
Overall bit rate mode : Variable
Overall bit rate : 632 Kbps
Encoded date : UTC 2014-11-22 09:59:03
Tagged date : UTC 2014-11-22 09:59:03
Video
ID : 1
Format : AVC
Format/Info : Advanced Video Codec
Format profile : High@L4.1
Format settings, CABAC : Yes
Format settings, ReFrames : 8 frames
Codec ID : avc1
Codec ID/Info : Advanced Video Coding
Duration : 27mn 10s
Bit rate : 500 Kbps
Maximum bit rate : 2 100 Kbps
Width : 640 pixels
Height : 360 pixels
Display aspect ratio : 16:9
Frame rate mode : Constant
Frame rate : 25.000 fps
Color space : YUV
Chroma subsampling : 4:2:0
Bit depth : 8 bits
Scan type : Progressive
Bits/(Pixel*Frame) : 0.087
Stream size : 97.1 MiB (79%)
Writing library : x264 core 130 r2273 b3065e6
Encoding settings : cabac=1 / ref=8 / deblock=1:-1:-1 / analyse=0x3:0x133 / me=umh / subme=10 / psy=1 / psy_rd=1.00:0.00 / mixed_ref=1 / me_range=24 / chroma_me=1 / trellis=2 / 8x8dct=1 / cqm=0 / deadzone=21,11 / fast_pskip=1 / chroma_qp_offset=-2 / threads=12 / lookahead_threads=2 / sliced_threads=0 / nr=0 / decimate=1 / interlaced=0 / bluray_compat=0 / constrained_intra=0 / bframes=8 / b_pyramid=2 / b_adapt=2 / b_bias=0 / direct=3 / weightb=1 / open_gop=0 / weightp=2 / keyint=250 / keyint_min=126 / scenecut=40 / intra_refresh=0 / rc_lookahead=40 / rc=2pass / mbtree=1 / bitrate=500 / ratetol=1.0 / qcomp=0.60 / qpmin=0 / qpmax=69 / qpstep=4 / cplxblur=20.0 / qblur=0.5 / ip_ratio=1.40 / aq=1:1.00
Encoded date : UTC 2014-11-22 09:59:03
Tagged date : UTC 2014-11-22 09:59:05
Audio
ID : 2
Format : AAC
Format/Info : Advanced Audio Codec
Format profile : LC
Codec ID : 40
Duration : 27mn 10s
Bit rate mode : Variable
Bit rate : 128 Kbps
Maximum bit rate : 158 Kbps
Channel count : 2 channels
Channel positions : Front: L R
Sampling rate : 48.0 KHz
Compression mode : Lossy
Delay relative to video : 80ms
Stream size : 24.9 MiB (20%)
Encoded date : UTC 2014-11-22 09:59:05
Tagged date : UTC 2014-11-22 09:59:05
Релиз от:
[Профиль] [ЛС]
Кто просматривает тему:

Форум Тема Автор Размер
Программы [Разное] Кавказская Кухня v.1.1.3 [Android 1.5+, RUS] TorrentFilm 30 MB
Разная литература Высоцкая Ю.А. - Кухня. Сердце дома (2016) PDF достали все 56 MB
Фильмы 2009 года Душевная кухня / Soul Kitchen (Фатих Акин / Fatih Akin) [2009, Германия, Комедия, DVDRip] Dub TorrentFilm 1.37 GB
Кулинария Журнал | Фермерская кухня №14 (166) (2015) [PDF] достали все 22 MB
Разная литература Кухни народов мира - Голиб Саидов - (Бухарская кухня; Осетинские пироги; Магия Востока) [2014-2015, FB2/PDF, RUS] Garik014 123 MB
Отечественные cериалы Кухня (2014) WEB-DLRip [H.264/1080p-LQ] (Сезон 4, серии 1-20 из 20) sergej644 18.22 GB
Отечественные cериалы Кухня / Kukhnya (Сезон 5, Серия 1-20 из 20) (Антон Федотов) [2015 , Комедийный Сериал , WEBDLRip 1080р] Враг Нароода 18.99 GB
Отечественные cериалы Кухня / Kukhnya (Сезон 5-6, Серия 1-40 из 40) (Антон Федотов, Дмитрий Дьяченко (II), Жора Крыжовников) [2015 , Комедийный Сериал , WEB-DLRip 1080р] Враг Нароода 38.27 GB
Показать сообщения:    

Текущее время: Сегодня 22:33

Часовой пояс: GMT



Вы не можете начинать темы
Вы не можете отвечать на сообщения
Вы не можете редактировать свои сообщения
Вы не можете удалять свои сообщения
Вы не можете голосовать в опросах
Вы не можете прикреплять файлы к сообщениям
Вы не можете скачивать файлы