Кухня [S01-06x01-120 из 120] (2012...) DVDRip, WEB-DLRip

 
Автор Сообщение

BOSS ®

Пол:

Стаж: 2 года 1 месяц

Сообщений: 3732

Откуда: ODESSA



Награды: 20 (Подробнее)

Top Seeder 4 (Количество: 1) Top Keeper 4 (Количество: 1) Top Keeper 3 (Количество: 1)
Торрент-статистика

Создавать темы 02-Апр-2016 12:26

[Цитировать]

«Вкусная комедия»-Страна: Россия / Yellow, Black & White
Жанр: комедия
Год выпуска: 2012...
Продолжительность: 00:24:00 / серия
Перевод: Не требуется
Cубтитры: нет
Оригинальная аудиодорожка: русский
Режиссер: Дмитрий Дьяченко, Жора Крыжовников
В ролях: Дмитрий Назаров, Марк Богатырев, Дмитрий Нагиев, Юлия Такшина, Елена Подкаминская, Марина Могилевская, Виктор Хориняк, Никита Тарасов, Сергей Епишев, Ольга Кузьмина...
Описание: «Во все времена еда была рядом с людьми. Она искушает, вдохновляет, восхищает, отвращает. Но человек не может без еды, а значит тот, кто создает еду, может управлять миром…». Так думал Максим Лавров, когда шел осуществлять свою мечту — устраиваться поваром в один из самых дорогих ресторанов столицы. Мечта сбылась, вот только на деле все вышло не так вкусно. Шеф-повар ресторана Виктор Баринов — настоящая звезда гастрономического бомонда, знающая как угодить взыскательной публике. Оборотная сторона этого идеального образа — злоупотребление алкоголем, страсть к азартным играм и невыносимый характер. В гневе Баринов страшен, в загуле — неукротим. Арт-директор Виктория Гончарова — настоящая снежная королева, карьеристка с ледяным сердцем, однако именно с ней Макс проводит ночь до того, как пойти на новую работу. А вся команда поваров только и ждет промашки новичка, чтобы от души посмеяться.
-Качество: DVDRip / 8 x DVD9 R5 - лицензионные диски от "CD Land" + WEB-DL 720p
Формат: AVI
Видео: 720x400 (16:9), 25.000 fps, XviD ~ 1800 kbps avg, 0.250 bit/pixel
Аудио: 48 kHz, Dolby AC3, 2 ch, 192 kbps, русский
Дополнительно: В раздаче присутствует бонусный фильм: "Фильм о фильме". 5-й и 6-й сезоны временные. По появлению DVD с этими сезонами будут заменены.

Внимание! Раздача ведётся путём добавления новых серий

Внимание! Раздача ведётся путём добавления новых серий
При каждом добавлении создаётся новый торрент. Чтобы начать докачку новой серии, пользователям необходимо сделать следующее:
1) остановить скачивание,
2) удалить старый торрент у себя из клиента (старые серии удалять не надо),
3) скачать новый торрент и запустить его у себя в клиенте вместо старого, при этом указать клиенту путь в старую папку куда и должно происходить скачивание новых серий.
Ваш клиент при этом должен произвести хеширование (проверку) старой папки (если не производит сам - помогите ему сделать это), и будет докачивать только те серии которых у вас ещё нет. Старые серии при этом не удаляются, а продолжают раздаваться!
Eсли вы уже удалили старые серии, то предотвратить повторную закачку старых серий можно, отжав галочку в соответствующих местах при запуске нового торрента.

MediaInfo

Общее
Формат : AVI
Формат/Информация : Audio Video Interleave
Размер файла : 385 Мбайт
Продолжительность : 26 м.
Общий поток : 2002 Кбит/сек
Программа кодирования : VirtualDubMod 1.5.10.3 | www.virtualdub-fr.org || (build 2550/release)
Библиотека кодирования : VirtualDubMod build 2550/release
Видео
Идентификатор : 0
Формат : MPEG-4 Visual
Профиль формата : Advanced Simple@L5
Параметр BVOP формата : 1
Параметр QPel формата : Нет
Параметр GMC формата : Без точки перехода
Параметр матрицы формата : Выборочная
Идентификатор кодека : XVID
Идентификатор кодека/Подсказка : XviD
Продолжительность : 26 м.
Битрейт : 1800 Кбит/сек
Ширина : 720 пикселей
Высота : 400 пикселей
Соотношение сторон : 16:9
Частота кадров : 25,000 кадров/сек
Цветовое пространство : YUV
Субдискретизация насыщенности : 4:2:0
Битовая глубина : 8 бит
Тип развёртки : Прогрессивная
Метод сжатия : С потерями
Бит/(Пиксели*Кадры) : 0.250
Размер потока : 346 Мбайт (90%)
Библиотека кодирования : XviD 73
Аудио
Идентификатор : 1
Формат : AC-3
Формат/Информация : Audio Coding 3
Расширение режима : CM (complete main)
Параметр Endianness формата : Big
Идентификатор кодека : 2000
Продолжительность : 26 м.
Вид битрейта : Постоянный
Битрейт : 192 Кбит/сек
Каналы : 2 канала
Расположение каналов : Front: L R
Частота : 48,0 КГц
Битовая глубина : 16 бит
Метод сжатия : С потерями
Размер потока : 36,9 Мбайт (10%)
Выравнивание : Разделение по промежуткам
Продолжительность промежутка : 40 мс. (1,00 видеокадр)
Время предзагрузки промежутка : 500 мс.

Скриншоты:

Торрент файл обновлен 2 апреля 2016 года, исправлена 17-я серия 6-го сезона
[Профиль] [ЛС]
Кто просматривает тему:

Форум Тема Автор Размер
Программы [Разное] Кавказская Кухня v.1.1.3 [Android 1.5+, RUS] TorrentFilm 30 MB
Разная литература Высоцкая Ю.А. - Кухня. Сердце дома (2016) PDF достали все 56 MB
Фильмы 2009 года Душевная кухня / Soul Kitchen (Фатих Акин / Fatih Akin) [2009, Германия, Комедия, DVDRip] Dub TorrentFilm 1.37 GB
Кулинария Журнал | Фермерская кухня №14 (166) (2015) [PDF] достали все 22 MB
Разная литература Кухни народов мира - Голиб Саидов - (Бухарская кухня; Осетинские пироги; Магия Востока) [2014-2015, FB2/PDF, RUS] Garik014 123 MB
Отечественные cериалы Кухня (2014) WEB-DLRip [H.264/1080p-LQ] (Сезон 4, серии 1-20 из 20) sergej644 18.22 GB
Отечественные cериалы Кухня / Kukhnya (Сезон 5, Серия 1-20 из 20) (Антон Федотов) [2015 , Комедийный Сериал , WEBDLRip 1080р] Враг Нароода 18.99 GB
Отечественные cериалы Кухня / Kukhnya (Сезон 5-6, Серия 1-40 из 40) (Антон Федотов, Дмитрий Дьяченко (II), Жора Крыжовников) [2015 , Комедийный Сериал , WEB-DLRip 1080р] Враг Нароода 38.27 GB
Показать сообщения:    

Текущее время: Сегодня 10:26

Часовой пояс: GMT



Вы не можете начинать темы
Вы не можете отвечать на сообщения
Вы не можете редактировать свои сообщения
Вы не можете удалять свои сообщения
Вы не можете голосовать в опросах
Вы не можете прикреплять файлы к сообщениям
Вы не можете скачивать файлы