Кухня в Париже (Дмитрий Дьяченко) [2014, Россия, комедия, DVD5] R5 Original Rus

 
Автор Сообщение

TorrentFilm ®

Пол:

Стаж: 2 года

Сообщений: 7741



Награды: Нет

Торрент-статистика

Создавать темы 04-Янв-2016 00:03

[Цитировать]

-Кухня в Париже-«Bon appétit!» -Страна: Россия
Студия: Yellow, Black & White
Жанр: комедия
Год выпуска: 2014
Мировая премьера: 1 мая 2014
Российская премьера: 1 мая 2014, «Централ Партнершип»
Дата выхода DVD: 17 июня 2014, «CD Land»
Дата выхода Blu-Ray: 17 июня 2014, «CD Land»
Продолжительность: 01:42:26
Перевод: Оригинал [Лицензия]
Cубтитры: нет
Оригинальная аудиодорожка: русский-Режиссер: Дмитрий Дьяченко-В ролях: Дмитрий Назаров, Марк Богатырев, Елена Подкаминская, Дмитрий Нагиев, Олег Табаков, Венсан Перес, Михаил Тарабукин, Сергей Лавыгин, Никита Тарасов, Виктор Хориняк-Описание: Модный столичный ресторан «Клод Моне» процветает. Именно здесь, в родном заведении Вика и Максим хотят отпраздновать долгожданную свадьбу. Но планы меняются, когда в ресторане назначают переговоры Президентов России и Франции! Команда ресторана терпит фиаско и вынуждена отправиться в «изгнание» — в Париж. Там Шеф с Максом сталкиваются с опасными конкурентами: Шеф — с ближайшим родственником, а Максим — с красавцем Николя, который кружит Вике голову не хуже искристого шампанского! И это еще не все вызовы, которые бросает им «Город любви», ведь надо постараться спасти репутацию, накормить Президентов и преодолеть миллион препятствий à la française…-Бонусы: нет- -Релиз группы: -Качество: DVD5 R5
Формат: DVD-Video
Видео кодек: MPEG2
Аудио кодек: AC3
Видео: PAL 16:9 (720x576(0.503)) MPEG Video, 25,000 кадр/сек, 5211 Кбит/сек
Аудио: Russian (Dolby AC3, 6 ch) 448 Кбит/сек, 48,0 КГц--

DVDInfo

Title: Kuhnja.v.Parizhe.2014.DVD5
Size: 4.13 Gb ( 4 335 294,00 KBytes ) - DVD-5
Enabled regions: 1, 2, 3, 4, 5, 6, 7, 8
VTS_01 :
Play Length: 00:00:19
Video: PAL 16:9 (720x576) VBR, Auto Pan&Scan, Auto Letterboxed
Audio:
Not specified (Dolby AC3, 2 ch)
VTS_02 :
Play Length: 01:42:26
Video: PAL 16:9 (720x576) VBR, Auto Pan&Scan, Auto Letterboxed
Audio:
Not specified (Dolby AC3, 6 ch)
* Menus Information *
VIDEO_TS Menu
Video:
PAL 16:9 (720x576) VBR
Auto Pan&Scan, Auto Letterboxed
Russian Language Unit :
Title Menu
VTS_01 Menu
Video:
PAL 16:9 (720x576) VBR
Auto Pan&Scan, Auto Letterboxed
Audio:
Not specified (Dolby AC3, 6 ch)
Russian Language Unit :
Root Menu
VTS_02 Menu
Video:
PAL 4:3 (720x576) VBR
Russian Language Unit :
Root Menu

MediaInfo

Общее
Полное имя : D:\Новинки 2014\Kuhnja.v.Parizhe.2014.DVD5\VIDEO_TS\VTS_02_2.VOB
Формат : MPEG-PS
Размер файла : 1024 Мбайт
Продолжительность : 24 м.
Режим общего битрейта : Переменный
Общий поток : 5774 Кбит/сек
Видео
Идентификатор : 224 (0xE0)
Формат : MPEG Video
Версия формата : Version 2
Профиль формата : Main@Main
Параметр BVOP формата : Да
Параметр матрицы формата : Выборочная
Параметр GOP формата : M=3, N=15
Продолжительность : 24 м.
Вид битрейта : Переменный
Битрейт : 5211 Кбит/сек
Максимальный битрейт : 9000 Кбит/сек
Ширина : 720 пикселей
Высота : 576 пикселей
Соотношение сторон : 16:9
Частота кадров : 25,000 кадров/сек
Стандарт вещания : PAL
Цветовое пространство : YUV
Субдискретизация насыщенности : 4:2:0
Битовая глубина : 8 бит
Тип развёртки : Чересстрочная
Порядок развёртки : Верхнее поле первое
Метод сжатия : С потерями
Бит/(Пиксели*Кадры) : 0.503
Временной код первого кадра : 00:24:57:14
Оригинал временного кода : Group of pictures header
Размер потока : 924 Мбайт (90%)
Аудио
Идентификатор : 189 (0xBD)-128 (0x80)
Формат : AC-3
Формат/Информация : Audio Coding 3
Расширение режима : CM (complete main)
Параметр Endianness формата : Big
Режим смешивания : DVD-Video
Продолжительность : 24 м.
Вид битрейта : Постоянный
Битрейт : 448 Кбит/сек
Каналы : 6 каналов
Расположение каналов : Front: L C R, Side: L R, LFE
Частота : 48,0 КГц
Битовая глубина : 16 бит
Метод сжатия : С потерями
Задержка видео : -600 мс.
Размер потока : 79,5 Мбайт (8%)

Скриншоты меню

Скриншоты фильма


-
-Раздача от группы:
[Профиль] [ЛС]
Кто просматривает тему:

Форум Тема Автор Размер
Программы [Разное] Кавказская Кухня v.1.1.3 [Android 1.5+, RUS] TorrentFilm 30 MB
Разная литература Высоцкая Ю.А. - Кухня. Сердце дома (2016) PDF достали все 56 MB
Фильмы 2009 года Душевная кухня / Soul Kitchen (Фатих Акин / Fatih Akin) [2009, Германия, Комедия, DVDRip] Dub TorrentFilm 1.37 GB
Кулинария Журнал | Фермерская кухня №14 (166) (2015) [PDF] достали все 22 MB
Разная литература Кухни народов мира - Голиб Саидов - (Бухарская кухня; Осетинские пироги; Магия Востока) [2014-2015, FB2/PDF, RUS] Garik014 123 MB
Отечественные cериалы Кухня (2014) WEB-DLRip [H.264/1080p-LQ] (Сезон 4, серии 1-20 из 20) sergej644 18.22 GB
Отечественные cериалы Кухня / Kukhnya (Сезон 5, Серия 1-20 из 20) (Антон Федотов) [2015 , Комедийный Сериал , WEBDLRip 1080р] Враг Нароода 18.99 GB
Отечественные cериалы Кухня / Kukhnya (Сезон 5-6, Серия 1-40 из 40) (Антон Федотов, Дмитрий Дьяченко (II), Жора Крыжовников) [2015 , Комедийный Сериал , WEB-DLRip 1080р] Враг Нароода 38.27 GB
Показать сообщения:    

Текущее время: Сегодня 22:10

Часовой пояс: GMT



Вы не можете начинать темы
Вы не можете отвечать на сообщения
Вы не можете редактировать свои сообщения
Вы не можете удалять свои сообщения
Вы не можете голосовать в опросах
Вы не можете прикреплять файлы к сообщениям
Вы не можете скачивать файлы