Кутузов (Владимир Петров) [1943 г., Исторический, DVDRip]

 
Автор Сообщение

reversefile ®

Пол:

Стаж: 4 года 5 месяцев

Сообщений: 842

Откуда: ReverseFile.org



Награды: Нет

Торрент-статистика

Создавать темы 11-Авг-2014 06:22

[Цитировать]

Кутузов
Жанр: Исторический
Год выпуска: 1943
Продолжительность: 01:42:34
Режиссёр: В. Петров
В ролях: Алексей Дикий, Семен Межинский, Евгений Калужский, Серго Закариадзе, Николай Охлопков, Сергей Блинников, Владимир Готовцев, Аркадий Поляков, Николай Бриллинг, Борис Чирков, Михаил Пуговкин, Иван Скуратов, Александр Степанов, Николай Рыжов, Гавриил Терехов
Описание: Вступление Наполеона в Россию, Бородинское сражение, пожар Москвы, Тарутинский маневр, партизанская война и, наконец, бегство французской армии из России - все главные эпизоды Отечественной войны 1812 года в историческом фильме, посвященному великому русскому полководцу Михаилу Илларионовичу Кутузову и его соратникам.
Семпл: http://www.sendspace.com/file/jhj52f
Качество видео: DVDRip
Формат видео: AVI
Видео: 1835 Кбит/сек, 688*512 (4:3), в 25,000 кадров/сек, XviD
Аудио: Русский, 128 Кбит/сек, 48,0 КГц, 2 канала, MP3

MediaInfo

Общее
Полное имя : O:\MONAR.RU\Художественные фильмы\Советское кино\Кутузов (1943).avi
Формат : AVI
Формат/Информация : Audio Video Interleave
Размер файла : 1,39 Гбайт
Продолжительность : 1 ч. 42 м.
Общий поток : 1938 Кбит/сек
Видео
Идентификатор : 0
Формат : MPEG-4 Visual
Профиль формата : Advanced Simple@L5
Параметр BVOP формата : 2
Параметр QPel формата : Нет
Параметр GMC формата : Без точки перехода
Параметр матрицы формата : Выборочная
Идентификатор кодека : XVID
Идентификатор кодека/Подсказка : XviD
Продолжительность : 1 ч. 42 м.
Битрейт : 1801 Кбит/сек
Ширина : 688 пикселей
Высота : 512 пикселей
Соотношение сторон : 4:3
Частота кадров : 25,000 кадров/сек
Цветовое пространство : YUV
Субдискретизация насыщенности : 4:2:0
Битовая глубина : 8 бит
Тип развёртки : Прогрессивная
Метод сжатия : С потерями
Бит/(Пиксели*Кадры) : 0.204
Размер потока : 1,29 Гбайт (93%)
Библиотека кодирования : XviD 1.2.1 (UTC 2008-12-04)
Аудио
Идентификатор : 1
Формат : MPEG Audio
Версия формата : Version 1
Профиль формата : Layer 3
Идентификатор кодека : 55
Идентификатор кодека/Подсказка : MP3
Продолжительность : 1 ч. 42 м.
Продолжительность оригинала : 1 ч. 42 м.
Вид битрейта : Постоянный
Битрейт : 128 Кбит/сек
Каналы : 2 канала
Частота : 48,0 КГц
Метод сжатия : С потерями
Размер потока : 93,9 Мбайт (7%)
Выравнивание : Соединение по промежуткам
Продолжительность промежутка : 40 мс. (1,00 видеокадр)

Скриншоты

--
[Профиль] [ЛС]

Создавать темы 06-Авг-2015 22:03 (спустя 11 месяцев 26 дней)

Топик был перенесен из форума Кино СССР в форум Кино СССР
sergej644
 
Кто просматривает тему:

Форум Тема Автор Размер
Фильмы (DVD 5/9) Кутузов (Владимир Петров) [1943 г., Исторический, DVD5] reversefile 3.86 GB
Показать сообщения:    

Текущее время: Сегодня 00:36

Часовой пояс: GMT



Вы не можете начинать темы
Вы не можете отвечать на сообщения
Вы не можете редактировать свои сообщения
Вы не можете удалять свои сообщения
Вы не можете голосовать в опросах
Вы не можете прикреплять файлы к сообщениям
Вы не можете скачивать файлы