Курт Сеит и Александра / Kurt Seyit ve Sura [01x01-13] (Хилаль Сарал) [2014, драма, мелодрама, военный, история] WEB-DLRip | D

 
Автор Сообщение

BOSS ®

Пол:

Стаж: 2 года 1 месяц

Сообщений: 3732

Откуда: ODESSA



Награды: 20 (Подробнее)

Top Seeder 4 (Количество: 1) Top Keeper 4 (Количество: 1) Top Seeder 2 (Количество: 1)
Торрент-статистика

Создавать темы 19-Апр-2015 20:03

[Цитировать]

Информация о фильме
Название: Курт Сеит и Александра / Курт Сеит и Шура
Оригинальное название: Kurt Seyit ve Sura
Год выхода: 2014
Жанр: драма, мелодрама, военный, история
Режиссер: Хилаль Сарал
В ролях: Кыванч Татлытуг, Фара Зейнеп Абдулла, Berk Erçer, Сердар Гёкхан, Седа Гувен, Sarp Can Köroglu, Биркан Сокуллу, Ushan Çakir, Сергей Тэсслер
О фильме:
Герои переживут крах правящей царской династии и Октябрьскую революцию. На фоне этих исторических событий, полных трагизма, горьких утрат, жестоких разочарований, и развернется история любви между бывшим офицером Царской армии лейтенантом Куртом Сеитом и шестнадцатилетней девушкой из аристократического рода Шурой.
Официальный сайт
Страна: Турция
Студия: Ay Yapim, Star TV
Продолжительность: ~ 01:30:00 серия
Перевод: Професиональный (полное дублирование) [Дубляж выполнен студией "СВ-Дубль" по заказу телеканала "Домашний"]
Файл
Кодек: XviD / MP3
Качество: WEB-DLRip
Видео: MPEG4, XviD, 720x400 (16:9), 25.000 fps, 1 312 Kbps (0.182 bit/pixel)
Звук: MP3, 44.1 KHz, 2 ch, 128 Kbps, CBR

Скриншоты

MediaInfo

General
Complete name : /KurtSeyitVeSura.S01/Kurt Seyit ve Sura.s01.e01.avi
Format : AVI
Format/Info : Audio Video Interleave
File size : 904 MiB
Duration : 1h 27mn
Overall bit rate : 1 450 Kbps
Writing application : VirtualDubModRus 1.5.10.2 (build 2542/release)
Writing library : VirtualDubMod build 2542/release
TCOD : 0
TCDO : 52336400000
Video
ID : 0
Format : MPEG-4 Visual
Format profile : Advanced Simple@L5
Format settings, BVOP : 2
Format settings, QPel : No
Format settings, GMC : No warppoints
Format settings, Matrix : Default (H.263)
Muxing mode : Packed bitstream
Codec ID : XVID
Codec ID/Hint : XviD
Duration : 1h 27mn
Bit rate : 1 312 Kbps
Width : 720 pixels
Height : 400 pixels
Display aspect ratio : 16:9
Frame rate : 25.000 fps
Color space : YUV
Chroma subsampling : 4:2:0
Bit depth : 8 bits
Scan type : Progressive
Compression mode : Lossy
Bits/(Pixel*Frame) : 0.182
Stream size : 818 MiB (91%)
Writing library : XviD 73
Audio
ID : 1
Format : MPEG Audio
Format version : Version 1
Format profile : Layer 3
Mode : Joint stereo
Mode extension : MS Stereo
Codec ID : 55
Codec ID/Hint : MP3
Duration : 1h 27mn
Bit rate mode : Constant
Bit rate : 128 Kbps
Channel(s) : 2 channels
Sampling rate : 44.1 KHz
Compression mode : Lossy
Stream size : 79.9 MiB (9%)
Alignment : Split accross interleaves
Interleave, duration : 40 ms (1.00 video frame)
Interleave, preload duration : 500 ms
[Профиль] [ЛС]
Кто просматривает тему:

Показать сообщения:    

Текущее время: Сегодня 06:07

Часовой пояс: GMT



Вы не можете начинать темы
Вы не можете отвечать на сообщения
Вы не можете редактировать свои сообщения
Вы не можете удалять свои сообщения
Вы не можете голосовать в опросах
Вы не можете прикреплять файлы к сообщениям
Вы не можете скачивать файлы