Курортный туман (Арман Геворгян) [2013, Россия, детектив, триллер, DVD5] R5 Original Rus

 
Автор Сообщение

TorrentFilm ®

Пол:

Стаж: 2 года

Сообщений: 7741



Награды: Нет

Торрент-статистика

Создавать темы 01-Янв-2016 00:19

[Цитировать]

-Курортный туман -Страна: Россия
Студия: Berg sound
Жанр: детектив, триллер
Год выпуска: 2013
Дата выхода DVD: 5 ноября 2013, «Мистерия Звука»
Продолжительность: 01:32:37
Перевод: Оригинал [Лицензия]
Cубтитры: нет
Оригинальная аудиодорожка: русский-Режиссер: Арман Геворгян-В ролях: Алёна Бабенко, Эльдар Лебедев, Александр Рапопорт, Алена Стебунова, Ксения Непотребная, Павел Кузьмин, Карен Мартиросян, Юрий Кормушин, Вячеслав Кулаков, Александр Катин-Описание: В курортном городе происходит странное и загадочное убийство олигарха Владимира Серого. Криминальная полиция начинает расследование, в которое вовлечены люди из близкого окружения жертвы. Во время расследования происходят не менее загадочные убийства лиц так или иначе причастных к этому делу.
Молодая красивая женщина Александра Богачева на правах частного юриста олигарха Серого помогает следователям разобраться во всех хитросплетениях семейных и внесемейных отношений убитого. В этом деле она сотрудничает с молодым лейтенантом Костей, сотрудником местной полиции.
В ходе расследования выясняется, что причины убийства кроются в далекой молодости жертвы.
-Бонусы: нет- -Качество: DVD5 R5
Формат: DVD-Video
Видео кодек: MPEG2
Аудио кодек: AC3
Видео: PAL 16:9 (720x576(0.586)) MPEG Video, 25,000 кадр/сек, 6077 Кбит/сек
Аудио: Russian (Dolby AC3, 2 ch) 192 Кбит/сек, 48,0 КГц--

DVDInfo

Title: Kurortnij.tyman.2012.DVD5
Size: 4.08 Gb ( 4 274 650,00 KBytes ) - DVD-5
Enabled regions: 1, 2, 3, 4, 5, 6, 7, 8
VTS_01 :
Play Length: 00:00:16+01:32:21
Video: PAL 16:9 (720x576) VBR, Auto Letterboxed
Audio:
Russian (Dolby AC3, 2 ch)
* Menus Information *
VIDEO_TS Menu
Video:
NTSC 4:3 (720x480) VBR
Auto Pan&Scan, Auto Letterboxed
Russian Language Unit :
Title Menu
VTS_01 Menu
Video:
PAL 16:9 (720x576) VBR
Auto Letterboxed
Audio:
Not specified (Dolby AC3, 2 ch)
Russian Language Unit :
Root Menu

MediaInfo

Общее
Полное имя : F:\Новинки 2013\Kurortnij.tyman.2012.DVD5\VIDEO_TS\VTS_01_2.VOB
Формат : MPEG-PS
Размер файла : 1024 Мбайт
Продолжительность : 22 м.
Режим общего битрейта : Переменный
Общий поток : 6396 Кбит/сек
Видео
Идентификатор : 224 (0xE0)
Формат : MPEG Video
Версия формата : Version 2
Профиль формата : Main@Main
Параметр BVOP формата : Да
Параметр матрицы формата : Выборочная
Параметр GOP формата : M=3, N=15
Продолжительность : 22 м.
Вид битрейта : Переменный
Битрейт : 6077 Кбит/сек
Максимальный битрейт : 8500 Кбит/сек
Ширина : 720 пикселей
Высота : 576 пикселей
Соотношение сторон : 16:9
Частота кадров : 25,000 кадров/сек
Стандарт вещания : PAL
Цветовое пространство : YUV
Субдискретизация насыщенности : 4:2:0
Битовая глубина : 8 бит
Тип развёртки : Прогрессивная
Метод сжатия : С потерями
Бит/(Пиксели*Кадры) : 0.586
Временной код первого кадра : 00:24:28:08
Оригинал временного кода : Group of pictures header
Размер потока : 973 Мбайт (95%)
Аудио
Идентификатор : 189 (0xBD)-128 (0x80)
Формат : AC-3
Формат/Информация : Audio Coding 3
Расширение режима : CM (complete main)
Параметр Endianness формата : Big
Режим смешивания : DVD-Video
Продолжительность : 22 м.
Вид битрейта : Постоянный
Битрейт : 192 Кбит/сек
Каналы : 2 канала
Расположение каналов : Front: L R
Частота : 48,0 КГц
Битовая глубина : 16 бит
Метод сжатия : С потерями
Задержка видео : -208 мс.
Размер потока : 30,7 Мбайт (3%)

Скриншоты меню

Скриншоты фильма


-
-Раздача от группы:
[Профиль] [ЛС]
Показать сообщения:    

Текущее время: Сегодня 02:26

Часовой пояс: GMT



Вы не можете начинать темы
Вы не можете отвечать на сообщения
Вы не можете редактировать свои сообщения
Вы не можете удалять свои сообщения
Вы не можете голосовать в опросах
Вы не можете прикреплять файлы к сообщениям
Вы не можете скачивать файлы