(Chanson) Куприк Сергей - Лебедь белый - 2013 [FLAC, image+.cue, lossless]

 
Автор Сообщение

sergej644 ®

Пол:

Стаж: 4 года 11 месяцев

Сообщений: 6045

Откуда: Soviet Union



Награды: Нет

Торрент-статистика

Создавать темы 29-Авг-2015 18:40

[Цитировать]

-Куприк Сергей / Лебедь белый-- Год издания: 2013
Страна: Russia
Жанр: Chanson
Продолжительность: 00:44:19-Лейбл издания: Kvadro Disc
Страна-выпуска диска: Russia
Номер по каталогу: KTL 13 - 989
Формат: FLAC
Битрейт аудио: lossless
Тип рипа: image+.cue
Наличие сканов в содержимом раздачи: да

Трэклист

01. Лебедь белый(04:43)
02. Так-так-так(03:15)
03. Хризантемы белые(03:41)
04. Босяцкая жизнь(03:52)
05. Жёлтые подсолнухи(03:18)
06. Для тебя(04:06)
07. Рука тяжёлая, прохладная(03:17)
08. Враг или друг(03:42)
09. Рулетка(03:36)
10. Колокола(03:41)
11. Улица(04:04)
12. Судьба артиста(03:09)

Лог создания рипа

Exact Audio Copy V1.0 beta 1 from 15. November 2010
Отчёт EAC об извлечении, выполненном 29. января 2013, 14:15
Сергей Куприк / Лебедь белый
Дисковод: _NEC    DV-5800E   Adapter: 0  ID: 1
Режим чтения                 : Достоверность
Использование точного потока : Да
Отключение кэша аудио        : Да
Использование указателей C2  : Нет
Коррекция смещения при чтении                     : 6
Способность читать области Lead-in и Lead-out     : Нет
Заполнение пропущенных сэмплов тишиной            : Да
Удаление блоков с тишиной в начале и конце        : Нет
При вычислениях CRC использовались нулевые сэмплы : Да
Интерфейс                                         : Установленный внешний ASPI-интерфейс
Выходной формат : Внутренние WAV-операции
Формат сэмплов  : 44.100 Гц; 16 бит; стерео
TOC извлечённого CD
     Трек |   Старт  | Длительность | Начальный сектор | Конечный сектор
    ---------------------------------------------------------------------
       1  |  0:00.00 |    4:43.00   |           0      |      21224
       2  |  4:43.00 |    3:14.14   |       21225      |      35788
       3  |  7:57.14 |    3:40.74   |       35789      |      52362
       4  | 11:38.13 |    3:51.66   |       52363      |      69753
       5  | 15:30.04 |    3:17.29   |       69754      |      84557
       6  | 18:47.33 |    4:05.30   |       84558      |     102962
       7  | 22:52.63 |    3:16.29   |      102963      |     117691
       8  | 26:09.17 |    3:41.45   |      117692      |     134311
       9  | 29:50.62 |    3:35.30   |      134312      |     150466
      10  | 33:26.17 |    3:40.60   |      150467      |     167026
      11  | 37:07.02 |    4:03.45   |      167027      |     185296
      12  | 41:10.47 |    3:08.07   |      185297      |     199403
Характеристики диапазона извлечения и сообщения об ошибках
Выбранный диапазон
     Имя файла C:\Documents and Settings\Admin\Рабочий стол\Куприк Сергей - Лебедь белый (2013г.)\Сергей Куприк - Лебедь белый.wav
     Пиковый уровень 97.7 %
0.7 X
     Качество диапазона 100.0 %
     CRC теста A86E8E76
     CRC копии A86E8E76
     Копирование... OK
Ошибок не произошло
AccurateRip: сводка
Трек  1  нет в базе данных
Трек  2  нет в базе данных
Трек  3  нет в базе данных
Трек  4  нет в базе данных
Трек  5  нет в базе данных
Трек  6  нет в базе данных
Трек  7  нет в базе данных
Трек  8  нет в базе данных
Трек  9  нет в базе данных
Трек 10  нет в базе данных
Трек 11  нет в базе данных
Трек 12  нет в базе данных
Ни одного трека нет в базе AccurateRip
Конец отчёта

Индексная карта (non-compilant .cue)

REM GENRE Шансон
REM DATE 2013
REM DISCID 9F0A620C
REM COMMENT "ExactAudioCopy v1.0b1"
PERFORMER "Сергей Куприк"
TITLE "Лебедь белый"
FILE "Сергей Куприк - Лебедь белый.flac" WAVE
  TRACK 01 AUDIO
    TITLE "Лебедь белый"
    PERFORMER "Сергей Куприк"
    FLAGS DCP
    INDEX 01 00:00:00
  TRACK 02 AUDIO
    TITLE "Так-так-так"
    PERFORMER "Сергей Куприк"
    FLAGS DCP
    INDEX 00 04:41:00
    INDEX 01 04:43:00
  TRACK 03 AUDIO
    TITLE "Хризантемы белые"
    PERFORMER "Сергей Куприк"
    FLAGS DCP
    INDEX 00 07:55:14
    INDEX 01 07:57:14
  TRACK 04 AUDIO
    TITLE "Босяцкая жизнь"
    PERFORMER "Сергей Куприк"
    FLAGS DCP
    INDEX 00 11:36:13
    INDEX 01 11:38:13
  TRACK 05 AUDIO
    TITLE "Жёлтые подсолнухи"
    PERFORMER "Сергей Куприк"
    FLAGS DCP
    INDEX 00 15:28:04
    INDEX 01 15:30:04
  TRACK 06 AUDIO
    TITLE "Для тебя"
    PERFORMER "Сергей Куприк"
    FLAGS DCP
    INDEX 00 18:45:33
    INDEX 01 18:47:33
  TRACK 07 AUDIO
    TITLE "Рука тяжёлая, прохладная"
    PERFORMER "Сергей Куприк"
    FLAGS DCP
    INDEX 00 22:50:63
    INDEX 01 22:52:63
  TRACK 08 AUDIO
    TITLE "Враг или друг"
    PERFORMER "Сергей Куприк"
    FLAGS DCP
    INDEX 00 26:07:17
    INDEX 01 26:09:17
  TRACK 09 AUDIO
    TITLE "Рулетка"
    PERFORMER "Сергей Куприк"
    FLAGS DCP
    INDEX 00 29:48:62
    INDEX 01 29:50:62
  TRACK 10 AUDIO
    TITLE "Колокола"
    PERFORMER "Сергей Куприк"
    FLAGS DCP
    INDEX 00 33:24:17
    INDEX 01 33:26:17
  TRACK 11 AUDIO
    TITLE "Улица"
    PERFORMER "Сергей Куприк"
    FLAGS DCP
    INDEX 00 37:05:02
    INDEX 01 37:07:02
  TRACK 12 AUDIO
    TITLE "Судьба артиста"
    PERFORMER "Сергей Куприк"
    FLAGS DCP
    INDEX 00 41:08:47
    INDEX 01 41:10:47

Лог Audiochecker

AUDIOCHECKER v2.0 beta (build 457) - by Dester - opdester@freemail.hu
~~~~~~~~~~~~~~~~~~~~~~~~~~~~~~~~~~
-=== НЕ РЕДАКТИРУЙТЕ ЭТОТ ФАЙЛ! ===-
Путь: ...\Куприк Сергей - Лебедь белый (2013г.)
1 -=- Сергей Куприк - Лебедь белый.flac -=- CDDA (100%)
244016468
--Не забываем говорить
[Профиль] [ЛС]
Показать сообщения:    

Текущее время: Сегодня 11:56

Часовой пояс: GMT



Вы не можете начинать темы
Вы не можете отвечать на сообщения
Вы не можете редактировать свои сообщения
Вы не можете удалять свои сообщения
Вы не можете голосовать в опросах
Вы не можете прикреплять файлы к сообщениям
Вы не можете скачивать файлы