Купальская ночь (Валерий Басов) [1983, комедия, DVB]

 
Автор Сообщение

reversefile ®

Пол:

Стаж: 4 года 5 месяцев

Сообщений: 842

Откуда: ReverseFile.org



Награды: Нет

Торрент-статистика

Создавать темы 11-Авг-2014 06:19

[Цитировать]

Купальская ночь
Важно: язык релиза - белорусский
Жанр: комедия
Год выпуска: 1983
Продолжительность: 01:09:37
Режиссёр: Валерий Басов
В ролях: Вера Трофимова, Александр Жданович, Нина Русланова, Михаил Петров, Наталья Кофанова, Александр Беспалый, Геннадий Овсянников, Валерий Филатов, Алексей Дударев, Евгений Крыжановский, Юлия Мазанкина, Елена Фетисенко, Наталья Хорохорина, Андрей Астраух, Татьяна Крюк
Описание: Василий и Зося любят друг друга, но родители против их брака. Приближается праздник Ивана Купалы. В ночь можно узнать свою дальнейшую судьбу, можно очиститься от всего худого, набраться сил и здоровья.
Доп. информация: Запись потока *.ts со спутника ABS-2, 75° в.д., ремукс в *.mpg программой VideoReDo.
Качество видео: DVB
Формат видео: MPEG-PS
Видео: MPEG Video, 720(768)x576 (4:3), 25,000 кадров/сек, 3186 Кбит/сек
Аудио: MPEG Audio, 48,0 КГц, 192 Кбит/сек, 2 канала

MediaInfo

Общее
Полное имя : D:\Torrent\Купальская ночь (Belarus 24).mpg
Формат : MPEG-PS
Размер файла : 1,68 Гбайт
Продолжительность : 1 ч. 9 м.
Режим общего битрейта : Переменный
Общий поток : 3446 Кбит/сек
Видео
Идентификатор : 224 (0xE0)
Формат : MPEG Video
Версия формата : Version 2
Профиль формата : Main@Main
Параметр BVOP формата : Да
Параметр матрицы формата : Выборочная
Параметр GOP формата : M=3, N=12
Продолжительность : 1 ч. 9 м.
Вид битрейта : Переменный
Битрейт : 3186 Кбит/сек
Максимальный битрейт : 15,0 Мбит/сек
Ширина : 720 пикселей
Высота : 576 пикселей
Соотношение сторон : 4:3
Частота кадров : 25,000 кадров/сек
Стандарт вещания : PAL
Цветовое пространство : YUV
Субдискретизация насыщенности : 4:2:0
Битовая глубина : 8 бит
Тип развёртки : Чересстрочная
Порядок развёртки : Верхнее поле первое
Метод сжатия : С потерями
Бит/(Пиксели*Кадры) : 0.307
Временной код первого кадра : 00:00:00:00
Оригинал временного кода : Group of pictures header
Размер потока : 1,55 Гбайт (92%)
Аудио
Идентификатор : 192 (0xC0)
Формат : MPEG Audio
Версия формата : Version 1
Профиль формата : Layer 2
Продолжительность : 1 ч. 9 м.
Вид битрейта : Постоянный
Битрейт : 192 Кбит/сек
Каналы : 2 канала
Частота : 48,0 КГц
Метод сжатия : С потерями
Задержка видео : 20 мс.
Размер потока : 95,6 Мбайт (6%)
[Профиль] [ЛС]

Создавать темы 06-Авг-2015 22:04 (спустя 11 месяцев 26 дней)

Топик был перенесен из форума Кино СССР в форум Кино СССР
sergej644
 
Показать сообщения:    

Текущее время: Сегодня 20:26

Часовой пояс: GMT



Вы не можете начинать темы
Вы не можете отвечать на сообщения
Вы не можете редактировать свои сообщения
Вы не можете удалять свои сообщения
Вы не можете голосовать в опросах
Вы не можете прикреплять файлы к сообщениям
Вы не можете скачивать файлы