Кундун / Kundun (1997) BDRip 1080p от 0ptimus | P, P2, A

 
Автор Сообщение

sergej644 ®

Пол:

Стаж: 4 года 11 месяцев

Сообщений: 6040

Откуда: Soviet Union



Награды: Нет

Торрент-статистика

Создавать темы 18-Июн-2015 20:11

[Цитировать]

Информация о фильме
Название: Кундун
Оригинальное название: Kundun
Год выхода: 1997
Жанр: Драма, военный, биография, история
Режиссер: Мартин Скорсезе
В ролях: Тензин Тхутхоб Царонг, Гьюрме Тетхонг, Тулку Джамаянг Кунга Тензин, Тензин Еши Пайчанг, Цзямъян Тензин, Карма Ванчук, Ким Чан, Генри Юк, Роберт Лин, Джон Вонг, Кен Люн, Юн С. Джойс, Р. Герн Троубридж, Бен Ванг
О фильме:
Реалистичное повествование о жизни и трагической судьбе четырнадцатого Далай-Ламы, одного из величайших религиозных деятелей нашей эпохи и духовного наставника буддистов всего мира. Хроника его детства и юности, наполненной тревогами за будущее древней нации, решительными попытками отстоять право Тибета на политическую и религиозную независимость. После китайского вторжения Далай-Лама был вынужден бежать в Индию, где он и по сей день пребывает в изгнании, призывая мировое сообщество обратить внимание на беды и страдания своего народа. Это история об удивительном юноше, наделенном многовековой мудростью и знаниями, чья несгибаемая воля и вера являются достойным примером для всех, кому дороги свобода и справедливость.

Страна: США
Студия: De Fina-Cappa, Dune Films, Refuge Productions Inc., Touchstone Pictures
Продолжительность: 02:14:24
Перевод: Профессиональный (многоголосый закадровый), профессиональный (двухголосый закадровый), авторский (одноголосый закадровый)
Файл
Кодек: h.264
Качество: BDRip 1080p
Видео: MPEG-4 AVC, 8239 Кбит/с, 1920х820, 23.976 кадр/с
Звук:
• №1: Russian: 48 kHz, AC3, 3/2 (L,C,R,l,r) + LFE ch, ~448.00 kbps avg |Многоголосый закадровый|
• №2: Russian: 48 kHz, AC3, 2/0 (L,R) ch, ~192.00 kbps avg |Двухголосый закадровый, НТВ+|
• №3: Russian: 48 kHz, DTS, 3/2 (L,C,R,l,r) + LFE ch, ~1536.00 kbps avg |Одноголосый закадровый, Ю.Сербин|
• №4: English: 48 kHz, DTS, 3/2 (L,C,R,l,r) + LFE ch, ~1536.00 kbps avg
Субтитры: Русские, английские

Награды

• Оскар, 1998 год
Номинации:
— Лучшая работа оператора
— Лучшие декорации
— Лучшие костюмы
— Лучший саундтрек к драматическому фильму
• Золотой глобус, 1998 год
Номинация:
— Лучший саундтрек

MediaInfo

---------------------------------------------------------------------------
x264 [info]: frame I:1309 Avg QP:15.43 size:199068
x264 [info]: frame P:39682 Avg QP:17.93 size: 88480
x264 [info]: frame B:152364 Avg QP:19.66 size: 29748
---------------------------------------------------------------------------
Полное имя : Kundun.1997.x264.BDRip.(1080p).0ptimus.mkv
Формат : Matroska
Версия формата : Version 4 / Version 2
Размер файла : 11,2 Гбайт
Продолжительность : 2 ч. 14 м.
Общий поток : 11,9 Мбит/сек
Название фильма : Кундун | Kundun [1997] -=BDRip (1080p) by 0ptimus=-
Дата кодирования : UTC 2013-02-12 10:47:19
Программа кодирования : mkvmerge v6.0.0 ('Coming Up For Air') built on Jan 20 2013 09:52:00
Библиотека кодирования : libebml v1.3.0 + libmatroska v1.4.0
Видео
Идентификатор : 1
Формат : AVC
Формат/Информация : Advanced Video Codec
Профиль формата : High@L4.1
Параметр CABAC формата : Да
Параметр ReFrames формата : 5 кадров
Идентификатор кодека : V_MPEG4/ISO/AVC
Продолжительность : 2 ч. 14 м.
Битрейт : 8239 Кбит/сек
Ширина : 1920 пикселей
Высота : 820 пикселей
Соотношение сторон : 2,35:1
Режим частоты кадров : Постоянный
Частота кадров : 23,976 кадра/сек
Цветовое пространство : YUV
Субдискретизация насыщенности : 4:2:0
Битовая глубина : 8 бит
Тип развёртки : Прогрессивная
Бит/(Пиксели*Кадры) : 0.218
Размер потока : 7,51 Гбайт (67%)
Заголовок : Rip by 0ptimus
Библиотека кодирования : x264 core 129 r2245 bc13772
Настройки программы : cabac=1 / ref=5 / deblock=1:-3:-3 / analyse=0x3:0x113 / me=umh / subme=11 / psy=1 / psy_rd=1.00:0.20 / mixed_ref=1 / me_range=32 / chroma_me=1 / trellis=2 / 8x8dct=1 / cqm=0 / deadzone=21,11 / fast_pskip=0 / chroma_qp_offset=-3 / threads=4 / lookahead_threads=1 / sliced_threads=0 / nr=0 / decimate=0 / interlaced=0 / bluray_compat=0 / constrained_intra=0 / bframes=9 / b_pyramid=2 / b_adapt=2 / b_bias=0 / direct=3 / weightb=1 / open_gop=0 / weightp=2 / keyint=240 / keyint_min=23 / scenecut=40 / intra_refresh=0 / rc_lookahead=40 / rc=2pass / mbtree=0 / bitrate=8239 / ratetol=1.0 / qcomp=0.60 / qpmin=0 / qpmax=69 / qpstep=4 / cplxblur=20.0 / qblur=0.5 / vbv_maxrate=50000 / vbv_bufsize=50000 / nal_hrd=none / ip_ratio=1.40 / pb_ratio=1.30 / aq=1:1.00
Язык : English
Default : Да
Forced : Да
Аудио #1
Идентификатор : 2
Формат : AC-3
Формат/Информация : Audio Coding 3
Расширение режима : CM (complete main)
Параметр Endianness формата : Big
Идентификатор кодека : A_AC3
Продолжительность : 2 ч. 14 м.
Вид битрейта : Постоянный
Битрейт : 448 Кбит/сек
Каналы : 6 каналов
Расположение каналов : Front: L C R, Side: L R, LFE
Частота : 48,0 КГц
Битовая глубина : 16 бит
Метод сжатия : С потерями
Размер потока : 431 Мбайт (4%)
Заголовок : Многоголосый закадровый
Язык : Russian
Default : Да
Forced : Да
Аудио #2
Идентификатор : 3
Формат : AC-3
Формат/Информация : Audio Coding 3
Расширение режима : CM (complete main)
Параметр Endianness формата : Big
Идентификатор кодека : A_AC3
Продолжительность : 2 ч. 14 м.
Вид битрейта : Постоянный
Битрейт : 192 Кбит/сек
Каналы : 2 канала
Расположение каналов : Front: L R
Частота : 48,0 КГц
Битовая глубина : 16 бит
Метод сжатия : С потерями
Размер потока : 185 Мбайт (2%)
Заголовок : Двухголосый закадровый [НТВ+]
Язык : Russian
Default : Нет
Forced : Нет
Аудио #3
Идентификатор : 4
Формат : DTS
Формат/Информация : Digital Theater Systems
Идентификатор кодека : A_DTS
Продолжительность : 2 ч. 14 м.
Вид битрейта : Постоянный
Битрейт : 1510 Кбит/сек
Каналы : 6 каналов
Расположение каналов : Front: L C R, Side: L R, LFE
Частота : 48,0 КГц
Битовая глубина : 16 бит
Метод сжатия : С потерями
Размер потока : 1,42 Гбайт (13%)
Заголовок : Авторский [Юрий Сербин]
Язык : Russian
Default : Нет
Forced : Нет
Аудио #4
Идентификатор : 5
Формат : DTS
Формат/Информация : Digital Theater Systems
Идентификатор кодека : A_DTS
Продолжительность : 2 ч. 14 м.
Вид битрейта : Постоянный
Битрейт : 1510 Кбит/сек
Каналы : 6 каналов
Расположение каналов : Front: L C R, Side: L R, LFE
Частота : 48,0 КГц
Битовая глубина : 16 бит
Метод сжатия : С потерями
Размер потока : 1,42 Гбайт (13%)
Язык : English
Default : Нет
Forced : Нет
Текст #1
Идентификатор : 6
Формат : UTF-8
Идентификатор кодека : S_TEXT/UTF8
Идентификатор кодека/Информация : UTF-8 Plain Text
Язык : Russian
Default : Нет
Forced : Нет
Текст #2
Идентификатор : 7
Формат : UTF-8
Идентификатор кодека : S_TEXT/UTF8
Идентификатор кодека/Информация : UTF-8 Plain Text
Язык : English
Default : Нет
Forced : Нет
Меню
00:00:00.000 : :Credits
00:07:19.814 : :Family Circle
00:17:23.876 : :Visitor
00:25:01.333 : :Taking Possession
00:32:53.596 : :Ceremonial Welcome
00:39:37.625 : :The Summer Palace
00:48:05.257 : :Holy Teeth
00:57:11.344 : :Shaman
01:06:48.421 : :Prophesied Death
01:16:08.522 : :Politics and Religion
01:23:20.578 : :Envoy From China
01:32:48.145 : :Stolen Silence
01:39:11.612 : :Visit to the Motherland
01:48:29.669 : :Old Home
01:56:55.466 : :Time for Resistance
02:08:52.099 : :Journey

Скриншоты



Релиз от:
[Профиль] [ЛС]
Кто просматривает тему:

Показать сообщения:    

Текущее время: Сегодня 22:42

Часовой пояс: GMT



Вы не можете начинать темы
Вы не можете отвечать на сообщения
Вы не можете редактировать свои сообщения
Вы не можете удалять свои сообщения
Вы не можете голосовать в опросах
Вы не можете прикреплять файлы к сообщениям
Вы не можете скачивать файлы