Кундо: Эпоха угрозы / Kundo: Age of the Rampan (2014) BDRip 720p | L2

 
Автор Сообщение

sergej644 ®

Пол:

Стаж: 4 года 11 месяцев

Сообщений: 6041

Откуда: Soviet Union



Награды: Нет

Торрент-статистика

Создавать темы 10-Фев-2015 21:59

[Цитировать]

Информация о фильме
Название: Кундо: Эпоха угрозы
Оригинальное название: Kundo: Age of the Rampa
Год выхода: 2014
Жанр: боевик, драма
Режиссер: Юн Чжон Бин
В ролях: Ха Джон У, Кан Дон Вон, Ли Кён Ён, Ли Сон Мин, Чо Джин Ун, Ма Дон Сок, Юн Джи Хе, Сон Ён Чан, Чжон Ман Сик, Ким Бён Ок
О фильме: 1859 г., Корея, управляемая феодальной династией Чосон, страдает от многочисленных стихийных бедствий: неурожая, нищеты, голода и смерти. Но господ интересует лишь их собственное благосостояние, и они продолжают эксплуатировать и преследовать бедных. В этот мрачный период Кундо был единственной надеждой бедняков, той силой, которая могла устрашить жестокосердных дворян. Доль Му Чи родился в нищей семье мясника, Чо Юн — в семье богача. Двое мужчин заключили сделку, в результате которой погибли мать и сестра Доль Му Чи. Одержимый местью Доль Му Чи становится членом команды Чо Юна — Кундо, и обнажает свой ​​меч для защиты бедняков. И, однажды, оказавшись лицом к лицу с человеком, уничтожившим его семью, он вызывает заклятого врага на дуэль…

Выпущено: Южная Корея
Продолжительность: 02:17:40
Озвучивание: Любительское (двухголосое) [DeadSno & den904]
Файл
Формат: MKV
Качество: BDRip 720p [TayTO]
Видео: 2726 kb/s, 1280х536
Аудио: Russian: DTS, 1510 kb/s (6 ch) / Korean: AC3, 640 kb/s (6 ch)
Субтитры: English
Дополнительно: Сохранены оригинальные чаптеры как на Blu-ray
Размер: 4.78 GB
Скачать: Сэмпл---

Media Info

General
Kundo.Age.of.the.Rampant.2014.Blu.Ray.720p.CINEMANIA.mkv
Format : Matroska
Format version : Version 4 / Version 2
File size : 4.78 GiB
Duration : 2h 17mn
Overall bit rate : 4 975 Kbps
Movie name : Release Group CINEMANIA
Encoded date : UTC 2014-10-20 09:23:46
Writing application : mkvmerge v7.2.0 ('On Every Street') 64bit built on Sep 13 2014 15:52:10
Writing library : libebml v1.3.0 + libmatroska v1.4.1
Video
ID : 1
Format : AVC
Format/Info : Advanced Video Codec
Format profile : High@L4.1
Format settings, CABAC : Yes
Format settings, ReFrames : 12 frames
Codec ID : V_MPEG4/ISO/AVC
Duration : 2h 17mn
Bit rate : 2 726 Kbps
Width : 1 280 pixels
Height : 536 pixels
Display aspect ratio : 2.40:1
Frame rate mode : Constant
Frame rate : 24.000 fps
Color space : YUV
Chroma subsampling : 4:2:0
Bit depth : 8 bits
Scan type : Progressive
Bits/(Pixel*Frame) : 0.166
Stream size : 2.62 GiB (55%)
Title : Release Group CINEMANIA
Writing library : x264 core 142 r2431+42 c69a006 tMod [8-bit@all X86_64]
Encoding settings : cabac=1 / ref=12 / deblock=1:-3:-3 / analyse=0x3:0x113 / me=umh / subme=7 / psy=1 / fade_compensate=0.00 / psy_rd=1.00:0.00 / mixed_ref=1 / me_range=16 / chroma_me=1 / trellis=1 / 8x8dct=1 / cqm=0 / deadzone=21,11 / fast_pskip=1 / chroma_qp_offset=-2 / threads=12 / lookahead_threads=2 / sliced_threads=0 / nr=0 / decimate=1 / interlaced=0 / bluray_compat=0 / constrained_intra=0 / fgo=0 / bframes=7 / b_pyramid=2 / b_adapt=1 / b_bias=0 / direct=1 / weightb=1 / open_gop=0 / weightp=2 / keyint=250 / keyint_min=24 / scenecut=40 / intra_refresh=0 / rc=crf / mbtree=0 / crf=21.0000 / qcomp=0.60 / qpmin=0:0:0 / qpmax=69:69:69 / qpstep=4 / ip_ratio=1.40 / pb_ratio=1.30 / aq=1:0.75 / aq-sensitivity=10.00 / aq-factor=1.00:1.00:1.00 / aq2=0 / aq3=0
Language : English
Default : Yes
Forced : No
Matrix coefficients : BT.709
Audio #1
ID : 2
Format : DTS
Format/Info : Digital Theater Systems
Mode : 16
Format settings, Endianness : Big
Codec ID : A_DTS
Duration : 2h 17mn
Bit rate mode : Constant
Bit rate : 1 510 Kbps
Channel(s) : 6 channels
Channel positions : Front: L C R, Side: L R, LFE
Sampling rate : 48.0 KHz
Bit depth : 24 bits
Compression mode : Lossy
Stream size : 1.45 GiB (30%)
Title : Влад и Снежинка
Language : Russian
Default : Yes
Forced : Yes
Audio #2
ID : 3
Format : AC-3
Format/Info : Audio Coding 3
Mode extension : CM (complete main)
Format settings, Endianness : Big
Codec ID : A_AC3
Duration : 2h 17mn
Bit rate mode : Constant
Bit rate : 640 Kbps
Channel(s) : 6 channels
Channel positions : Front: L C R, Side: L R, LFE
Sampling rate : 48.0 KHz
Bit depth : 16 bits
Compression mode : Lossy
Stream size : 630 MiB (13%)
Language : Korean
Default : No
Forced : No
Text #2
ID : 5
Format : UTF-8
Codec ID : S_TEXT/UTF8
Codec ID/Info : UTF-8 Plain Text
Language : English
Default : No
Forced : No
Menu
00:00:00.000 : en:00:00:00.000
00:13:42.083 : en:00:13:42.083
00:23:31.250 : en:00:23:31.250
00:33:09.542 : en:00:33:09.542
00:42:19.083 : en:00:42:19.083
00:51:42.167 : en:00:51:42.167
00:59:12.583 : en:00:59:12.583
01:12:50.375 : en:01:12:50.375
01:26:10.375 : en:01:26:10.375
01:39:26.958 : en:01:39:26.958
01:47:00.583 : en:01:47:00.583
01:59:57.208 : en:01:59:57.208
02:14:11.708 : en:02:14:11.708
---

Скриншоты

--- -
[Профиль] [ЛС]
Кто просматривает тему:

Форум Тема Автор Размер
Программы [Система] Таймер и Секундомер [Android 2.0+, Multi] TorrentFilm 437 KB
Показать сообщения:    

Текущее время: Сегодня 01:08

Часовой пояс: GMT



Вы не можете начинать темы
Вы не можете отвечать на сообщения
Вы не можете редактировать свои сообщения
Вы не можете удалять свои сообщения
Вы не можете голосовать в опросах
Вы не можете прикреплять файлы к сообщениям
Вы не можете скачивать файлы