Кунг Фьюри / Kung Fury (Дэвид Сандберг / David Sandberg) [2015, Швеция, боевик, фантастика, комедия, WEB-DL 1080p] DVO (Ozz)

 
Автор Сообщение

TorrentFilm ®

Пол:

Стаж: 2 года

Сообщений: 7741



Награды: Нет

Торрент-статистика

Создавать темы 30-Май-2015 00:04

[Цитировать]

Kung Fury
Кунг Фьюри- Год выхода: 2015
Страна: Швеция
Жанр: боевик, фантастика, комедия
Продолжительность: 00:30:20
Перевод: Профессиональный (двухголосый закадровый) Ozz Tv-Режиссер: Дэвид Сандберг
В ролях: Дэвид Сандберг, Йорма Такконе, Леопольд Нильссон, Стивен Чю, Андреас Кахлинг, Эрик Хёрнквист, Элени Янг, Хелен Алсон, Пер-Хенрик Арвидус, Эос Карлссон-Описание: В Майами 80-х появляется самый опасный преступник всех времен — Адольф Гитлер, по прозвищу Кунг Фюрер. Суперкоп Кунг Фьюри решает совершить путешествие во времени в нацистскую Германию, чтобы убить Гитлера и положить конец нацистской империи.-- -Sample- Озвучка: Екатерина Галицына и Алексей Серегин
Перевод: Trotteville-Качество: WEB-DL 1080p
Формат: MKV
Видео кодек: x264
Аудио кодек: AC3
Видео: 1920x1080 at 25.000 fps, x264, 6691 kbps avg, 0.129 b/pixel
Аудио #1: Russian 48.0 KHz, AC3, 2 channels, 192 Kbps |Ozz|
Аудио #2: English 48.0 KHz, AC3, 2 channels, 192 Kbps
Субтитры: нет-

MediaInfo

Complete name                            : D:\Kung.Fury.2015.1080p.WEB-DL.Ozz-tv.mkv
Format                                   : Matroska
Format version                           : Version 2
File size                                : 1.53 GiB
Duration                                 : 30mn 20s
Overall bit rate                         : 7 218 Kbps
Encoded date                             : UTC 2015-05-29 14:02:24
Writing application                      : mkvmerge v5.8.0 ('No Sleep / Pillow') built on Sep  2 2012 15:37:04
Writing library                          : libebml v1.2.3 + libmatroska v1.3.0
Video
ID                                       : 1
Format                                   : AVC
Format/Info                              : Advanced Video Codec
Format profile                           : High@L5.0
Format settings, CABAC                   : Yes
Format settings, ReFrames                : 8 frames
Format settings, GOP                     : N=1
Codec ID                                 : V_MPEG4/ISO/AVC
Duration                                 : 30mn 20s
Bit rate                                 : 6 691 Kbps
Width                                    : 1 920 pixels
Height                                   : 1 080 pixels
Display aspect ratio                     : 16:9
Frame rate mode                          : Constant
Frame rate                               : 25.000 fps
Color space                              : YUV
Chroma subsampling                       : 4:2:0
Bit depth                                : 8 bits
Scan type                                : Progressive
Bits/(Pixel*Frame)                       : 0.129
Stream size                              : 1.42 GiB (93%)
Writing library                          : Zencoder Video Encoding System
Default                                  : Yes
Forced                                   : No
Color primaries                          : BT.709
Transfer characteristics                 : BT.709
Matrix coefficients                      : BT.709
Audio #1
ID                                       : 2
Format                                   : AC-3
Format/Info                              : Audio Coding 3
Mode extension                           : CM (complete main)
Format settings, Endianness              : Big
Codec ID                                 : A_AC3
Duration                                 : 30mn 20s
Bit rate mode                            : Constant
Bit rate                                 : 192 Kbps
Channel(s)                               : 2 channels
Channel positions                        : Front: L R
Sampling rate                            : 48.0 KHz
Bit depth                                : 16 bits
Compression mode                         : Lossy
Stream size                              : 41.7 MiB (3%)
Title                                    : DVO Ozz-tv
Language                                 : Russian
Default                                  : Yes
Forced                                   : No
Audio #2
ID                                       : 3
Format                                   : AC-3
Format/Info                              : Audio Coding 3
Mode extension                           : CM (complete main)
Format settings, Endianness              : Big
Codec ID                                 : A_AC3
Duration                                 : 30mn 20s
Bit rate mode                            : Constant
Bit rate                                 : 192 Kbps
Channel(s)                               : 2 channels
Channel positions                        : Front: L R
Sampling rate                            : 48.0 KHz
Bit depth                                : 16 bits
Compression mode                         : Lossy
Stream size                              : 41.7 MiB (3%)
Language                                 : English
Default                                  : No
Forced                                   : No
-

Screens

-
[Профиль] [ЛС]
Кто просматривает тему:

Показать сообщения:    

Текущее время: Сегодня 12:13

Часовой пояс: GMT



Вы не можете начинать темы
Вы не можете отвечать на сообщения
Вы не можете редактировать свои сообщения
Вы не можете удалять свои сообщения
Вы не можете голосовать в опросах
Вы не можете прикреплять файлы к сообщениям
Вы не можете скачивать файлы