Кунг-фу Панда 3 / Kung Fu Panda 3 (2016) BDRip 720p | Лицензия

 
Автор Сообщение

достали все ®

Пол:

Стаж: 1 год 8 месяцев

Сообщений: 6527



Награды: 12 (Подробнее)

Mega Seeder 1 (Количество: 1) Mega Seeder 5 (Количество: 1) Top Releaser 3 (Количество: 1)
Торрент-статистика

Создавать темы 08-Июл-2016 03:24

[Цитировать]

Информация о фильме
Название: Кунг-фу Панда 3
Оригинальное название: Kung Fu Panda 3
Год выхода: 2016
Жанр: мультфильм, боевик, комедия, приключения, семейный
Режиссер: Алессандро Карлони, Дженнифер Ю
В ролях: Джек Блэк, Брайан Крэнстон, Дастин Хоффман, Анджелина Джоли, Дж.К. Симмонс, Джеки Чан, Сет Роген, Люси Лью, Дэвид Кросс, Кейт Хадсон
О фильме:
Воссоединившись со своим давно потерянным отцом, По отправляется в тайный рай для панд, где его ожидает встреча с множеством веселых сородичей. Однако вскоре злодей Кай начинает зачистку — он уничтожает кунг-фу мастеров по всему Китаю.
По предстоит сделать невозможное — обучить боевому искусству деревню, полную его веселых, неуклюжих собратьев, и тем самым превратить их в отряд кунг-фу панд.

Страна: США, Китай
Студия: China Film Co., DreamWorks Animation, Oriental DreamWorks
Продолжительность: 01:34:54
Перевод: Профессиональный (дублированный) Blu-ray EUR
Файл
Формат: Matroska
Видео: 1280x544 at 23.976 fps, x264@L4.1, ~7075 kbps avg
Аудио#1: Russian: 48 kHz, DTS, 3/2 (L,C,R,l,r) + LFE ch, ~768 kbps avg |Дубляж, Blu-ray EUR|
Аудио#2: Ukrainian: 48 kHz, AC3, 3/2 (L,C,R,l,r) + LFE ch, ~448 kbps avg |Дубляж, Blu-ray EUR|
Аудио#3: English: 48 kHz, DTS-ES, 3/2 (L,C,R,l,r) + LFE ch, ~1509 kbps avg
Субтитры: Russian, Ukrainian, English, Romanian
***Сохранены оригинальные главы как на Blu-ray.
***Видеоряд - CRiME, сборка рипа - Womanizer0.

MI

Общее
Уникальный идентификатор : 197091098359658287361510024983304935382 (0x94465D6435432B8C9BADD4EC6FDB17D6)
Полное имя : Kung.Fu.Panda.3.720p.BluRay.x264.Rus.Ukr.Eng.Subs-CRiME.mkv
Формат : Matroska
Версия формата : Version 4 / Version 2
Размер файла : 6,63 Гбайт
Продолжительность : 1 ч. 34 м.
Общий поток : 9999 Кбит/сек
Название фильма : released by aldershot
Дата кодирования : UTC 2016-07-07 19:09:03
Программа кодирования : mkvmerge v6.9.1 ('Blue Panther') 64bit built on Apr 18 2014 18:23:38
Библиотека кодирования : libebml v1.3.0 + libmatroska v1.4.1
Видео
Идентификатор : 1
Формат : AVC
Формат/Информация : Advanced Video Codec
Профиль формата : High@L4.1
Параметр CABAC формата : Да
Параметр ReFrames формата : 12 кадров
Идентификатор кодека : V_MPEG4/ISO/AVC
Продолжительность : 1 ч. 34 м.
Битрейт : 7075 Кбит/сек
Ширина : 1280 пикселей
Высота : 544 пикселя
Соотношение сторон : 2,35:1
Режим частоты кадров : Постоянный
Частота кадров : 23,976 кадра/сек
Цветовое пространство : YUV
Субдискретизация насыщенности : 4:2:0
Битовая глубина : 8 бит
Тип развёртки : Прогрессивная
Бит/(Пиксели*Кадры) : 0.424
Размер потока : 4,69 Гбайт (71%)
Заголовок : CRiME@NOiZE
Библиотека кодирования : x264 core 148 r2692 64f4e24
Настройки программы : cabac=1 / ref=12 / deblock=1:-3:-3 / analyse=0x3:0x133 / me=umh / subme=10 / psy=1 / psy_rd=0.90:0.00 / mixed_ref=1 / me_range=64 / chroma_me=1 / trellis=2 / 8x8dct=1 / cqm=0 / deadzone=21,11 / fast_pskip=0 / chroma_qp_offset=-2 / threads=6 / lookahead_threads=1 / sliced_threads=0 / nr=0 / decimate=0 / interlaced=0 / bluray_compat=0 / constrained_intra=0 / bframes=9 / b_pyramid=2 / b_adapt=2 / b_bias=0 / direct=3 / weightb=1 / open_gop=0 / weightp=2 / keyint=250 / keyint_min=24 / scenecut=40 / intra_refresh=0 / rc_lookahead=60 / rc=crf / mbtree=0 / crf=14.5 / qcomp=0.65 / qpmin=0 / qpmax=69 / qpstep=4 / vbv_maxrate=62500 / vbv_bufsize=78125 / crf_max=0.0 / nal_hrd=none / filler=0 / ip_ratio=1.35 / pb_ratio=1.25 / aq=3:0.78 / zones=0,555,crf=13.5/5593,6446,crf=13.0/7548,7656,crf=13.0/7800,8007,crf=13.0/8053,8148,crf=13.0/17098,19848,crf=13.0/27406,27800,crf=13.0/33593,35097,crf=13.0/37524,38017,crf=13.0/38944,39309,crf=13.0/43649,44077,crf=12.5/45394,45477,crf=12.5/45570,45823,crf=13.0/46157,46204,crf=13.0/46324,47222,crf=13.0/49804,51168,crf=12.5/54046,55074,crf=13.0/55189,56704,crf=13.0/58207,58513,crf=13.0/58697,58740,crf=13.0/59448,59668,crf=13.0/60729,61179,crf=12.5/65867,66494,crf=12.5/67323,67459,crf=13.0/68253,68339,crf=13.0/70208,70219,crf=13.0/70554,74227,crf=13.0/77365,78894,crf=13.0/82925,86831,crf=12.5/87224,89307,crf=13.0/106824,110848,crf=13.0/111856,115562,crf=13.0/117263,117291,crf=13.0/117614,117713,crf=13.0/119651,119880,crf=13.0/119927,136535,crf=18.0
Язык : English
Default : Да
Forced : Нет
Аудио #1
Идентификатор : 2
Формат : DTS
Формат/Информация : Digital Theater Systems
Режим : 16
Параметр Endianness формата : Big
Идентификатор кодека : A_DTS
Продолжительность : 1 ч. 34 м.
Вид битрейта : Постоянный
Битрейт : 768 Кбит/сек
Каналы : 6 каналов
Расположение каналов : Front: L C R, Side: L R, LFE
Частота : 48,0 КГц
Битовая глубина : 24 бит
Метод сжатия : С потерями
Размер потока : 521 Мбайт (8%)
Заголовок : DTS 5.1 @ 768 Kbps, Дубляж, Blu-Ray EUR
Язык : Russian
Default : Да
Forced : Нет
Аудио #2
Идентификатор : 3
Формат : AC-3
Формат/Информация : Audio Coding 3
Расширение режима : CM (complete main)
Параметр Endianness формата : Big
Идентификатор кодека : A_AC3
Продолжительность : 1 ч. 34 м.
Вид битрейта : Постоянный
Битрейт : 448 Кбит/сек
Каналы : 6 каналов
Расположение каналов : Front: L C R, Side: L R, LFE
Частота : 48,0 КГц
Метод сжатия : С потерями
Размер потока : 304 Мбайт (4%)
Заголовок : AC3 5.1 @ 448 Kbps, Дубляж, Blu-Ray EUR
Язык : Ukrainian
Default : Нет
Forced : Нет
Аудио #3
Идентификатор : 4
Формат : DTS
Формат/Информация : Digital Theater Systems
Профиль формата : ES
Режим : 16
Параметр Endianness формата : Big
Идентификатор кодека : A_DTS
Продолжительность : 1 ч. 34 м.
Вид битрейта : Постоянный
Битрейт : 1509 Кбит/сек
Каналы : 6 каналов
Расположение каналов : Front: L C R, Side: L R, LFE
Частота : 48,0 КГц
Битовая глубина : 24 бит
Метод сжатия : С потерями
Размер потока : 1,00 Гбайт (15%)
Заголовок : DTS-ES 5.1 @ 1536 Kbps, Original
Язык : English
Default : Нет
Forced : Нет
Текст #1
Идентификатор : 5
Формат : UTF-8
Идентификатор кодека : S_TEXT/UTF8
Идентификатор кодека/Информация : UTF-8 Plain Text
Заголовок : full
Язык : Romanian
Default : Нет
Forced : Нет
Текст #2
Идентификатор : 6
Формат : UTF-8
Идентификатор кодека : S_TEXT/UTF8
Идентификатор кодека/Информация : UTF-8 Plain Text
Заголовок : forced
Язык : Russian
Default : Да
Forced : Нет
Текст #3
Идентификатор : 7
Формат : UTF-8
Идентификатор кодека : S_TEXT/UTF8
Идентификатор кодека/Информация : UTF-8 Plain Text
Заголовок : full
Язык : Russian
Default : Нет
Forced : Нет
Текст #4
Идентификатор : 8
Формат : UTF-8
Идентификатор кодека : S_TEXT/UTF8
Идентификатор кодека/Информация : UTF-8 Plain Text
Заголовок : full
Язык : Ukrainian
Default : Нет
Forced : Нет
Текст #5
Идентификатор : 9
Формат : UTF-8
Идентификатор кодека : S_TEXT/UTF8
Идентификатор кодека/Информация : UTF-8 Plain Text
Заголовок : full
Язык : English
Default : Нет
Forced : Нет
Текст #6
Идентификатор : 10
Формат : UTF-8
Идентификатор кодека : S_TEXT/UTF8
Идентификатор кодека/Информация : UTF-8 Plain Text
Заголовок : SDH
Язык : English
Default : Нет
Forced : Нет
Меню
00:00:00.000 : en:00:00:00.000
00:05:21.780 : en:00:05:21.780
00:08:10.240 : en:00:08:10.240
00:10:00.016 : en:00:10:00.016
00:12:26.037 : en:00:12:26.037
00:15:24.215 : en:00:15:24.215
00:19:08.230 : en:00:19:08.230
00:24:39.395 : en:00:24:39.395
00:30:17.607 : en:00:30:17.607
00:33:53.990 : en:00:33:53.990
00:36:18.259 : en:00:36:18.259
00:39:55.643 : en:00:39:55.643
00:43:32.652 : en:00:43:32.652
00:46:45.845 : en:00:46:45.845
00:51:41.181 : en:00:51:41.181
00:56:04.611 : en:00:56:04.611
00:59:48.168 : en:00:59:48.168
01:02:11.353 : en:01:02:11.353
01:05:26.965 : en:01:05:26.965
01:10:16.838 : en:01:10:16.838
01:14:06.901 : en:01:14:06.901
01:17:06.580 : en:01:17:06.580
01:20:34.788 : en:01:20:34.788
01:24:21.181 : en:01:24:21.181

Скриншоты


[Профиль] [ЛС]

Создавать темы 29-Июл-2016 17:09 (спустя 21 день)

Топик был перенесен из форума Зарубежные Мультфильмы (WEB-DL 720p, 1080p) в форум Зарубежные Мультфильмы (Blu-ray, BD-Remux, BDRip 1080p, 720p)
Russian Mafia
 
Кто просматривает тему:

Показать сообщения:    

Текущее время: Сегодня 18:02

Часовой пояс: GMT



Вы не можете начинать темы
Вы не можете отвечать на сообщения
Вы не можете редактировать свои сообщения
Вы не можете удалять свои сообщения
Вы не можете голосовать в опросах
Вы не можете прикреплять файлы к сообщениям
Вы не можете скачивать файлы