Кулак / F.I.S.T (1978) BDRip 720p от Koenig | P2, A | US Uncut Version

 
Автор Сообщение

Russian Mafia ®

Пол:

Стаж: 1 год 8 месяцев

Сообщений: 4247



Награды: 10 (Подробнее)

Mega Seeder 4 (Количество: 1) Top Releaser 4 (Количество: 1) Top Releaser 5 (Количество: 1)
Торрент-статистика

Создавать темы 29-Май-2016 15:21

[Цитировать]

Информация о фильме
Название: Кулак
Оригинальное название: F.I.S.T
Год выхода: 1978
Жанр: Драма
Режиссер: Норман Джуисон
В ролях: Сильвестр Сталлоне, Род Стайгер, Питер Бойл, Мелинда Диллон, Дэвид Хаффман, Кевин Конуэй, Тони Ло Бьянко, Кэсси Йэтс, Питер Донат, Джон Лен, Генри Уилкоксон, Ричард Херд, Тони Мокус мл., Кен Керчевал, Джо Торнаторе, Джеймс Карен, Стюарт Гиллард, Брайан Деннехи
О фильме:
30-е годы. Америка охвачена экономической депрессией. Мафия и коррупция процветают. Заводы и фабрики терпят огромные убытки. Увольняют массы людей, улицы переполнены недовольными. Полно желающих сотрудничать с организованной преступностью. Но Джонни Ковак не такой. Имея связи с преступным миром, он делает выбор в пользу закона, вступает в профсоюз, чтобы доказать свое справедливое право на честный труд. У Джонни великолепный дар убеждать, он собирает под знаменем профсоюза людей. Но в скором времени убеждается — идя по пути закона, нет шансов добиться своих прав. Игнорируя угрозы, он принимает решение выступать против капитализма методом оружия.

Страна: США
Студия: Chateau Productions
Продолжительность: 02:25:21
Перевод: Профессиональный двухголосый, авторский
Файл
Кодек: x264
Качество: BDRip 720p
Видео: MPEG-4 AVC, 7320 Кбит/с, 1280x696, 23.976 кадр/с
Аудио #1: AC3, 2 ch, 192 Кбит/с | Профессиональный двухголосый (НТВ+, Игорь Тарадайкин и Наталья Казначеева)
Аудио #2: AC3, 2 ch, 192 Кбит/с | Авторский (Андрей Гаврилов)
Аудио #3: AC3, 2 ch, 640 Кбит/с | Авторский (Антон Карповский)
Аудио #4: AC3, 2 ch, 640 Кбит/с | Английский

Релиз

Полная американская версия на 20 минут длиннее европейской. Сравнение версий
Переводы НТВ+ и Гаврилова на короткую версию, на расширенные места перевод А. Карповского.
За перевод Антона Карповского спасибо ylnian
Сохранены оригинальные главы как на Blu-ray.

MediaInfo

Общее
Уникальный идентификатор : 180942576729834615745161987060063917334 (0x882045CDF433CF00BCE8963E93B5D516)
Полное имя : F.I.S.T.1978.US.Uncut.BDRip.720p.mkv
Формат : Matroska
Версия формата : Version 4 / Version 2
Размер файла : 9,12 Гбайт
Продолжительность : 2 ч. 25 м.
Общий поток : 8984 Кбит/сек
Название фильма : F.I.S.T US Uncut Version
Режиссёр : Norman Jewison
Дата кодирования : UTC 2016-05-29 11:40:47
Программа кодирования : mkvmerge v7.7.0 ('Six Voices') 32bit built on Feb 28 2015 23:23:00
Библиотека кодирования : libebml v1.3.1 + libmatroska v1.4.2
Attachements : cover.jpg
Release : Koenig
DURATION : 02:25:21.024000000
NUMBER_OF_FRAMES : 272532
NUMBER_OF_BYTES : 697681920
_STATISTICS_WRITING_APP : mkvmerge v7.7.0 ('Six Voices') 32bit built on Feb 28 2015 23:23:00
_STATISTICS_WRITING_DATE_UTC : 2016-05-29 11:40:47
_STATISTICS_TAGS : BPS DURATION NUMBER_OF_FRAMES NUMBER_OF_BYTES
Видео
Идентификатор : 1
Формат : AVC
Формат/Информация : Advanced Video Codec
Профиль формата : High@L4.1
Параметр CABAC формата : Да
Параметр ReFrames формата : 8 кадров
Идентификатор кодека : V_MPEG4/ISO/AVC
Продолжительность : 2 ч. 25 м.
Битрейт : 7319 Кбит/сек
Ширина : 1280 пикселей
Высота : 696 пикселей
Соотношение сторон : 1,85:1
Режим частоты кадров : Постоянный
Частота кадров : 23,976 кадра/сек
Цветовое пространство : YUV
Субдискретизация насыщенности : 4:2:0
Битовая глубина : 8 бит
Тип развёртки : Прогрессивная
Бит/(Пиксели*Кадры) : 0.343
Размер потока : 7,25 Гбайт (79%)
Библиотека кодирования : x264 core 146 r2538 121396c
Настройки программы : cabac=1 / ref=8 / deblock=1:-3:-3 / analyse=0x3:0x133 / me=umh / subme=10 / psy=1 / psy_rd=1.10:0.00 / mixed_ref=1 / me_range=32 / chroma_me=1 / trellis=2 / 8x8dct=1 / cqm=0 / deadzone=21,11 / fast_pskip=0 / chroma_qp_offset=-2 / threads=3 / lookahead_threads=1 / sliced_threads=0 / nr=0 / decimate=1 / interlaced=0 / bluray_compat=0 / constrained_intra=0 / bframes=11 / b_pyramid=2 / b_adapt=2 / b_bias=0 / direct=3 / weightb=1 / open_gop=0 / weightp=2 / keyint=240 / keyint_min=23 / scenecut=40 / intra_refresh=0 / rc_lookahead=40 / rc=2pass / mbtree=1 / bitrate=7319 / ratetol=1.0 / qcomp=0.60 / qpmin=10 / qpmax=51 / qpstep=4 / cplxblur=20.0 / qblur=0.5 / vbv_maxrate=50000 / vbv_bufsize=62500 / nal_hrd=none / filler=0 / ip_ratio=1.40 / aq=1:1.00
Default : Да
Forced : Нет
Аудио #1
Идентификатор : 2
Формат : AC-3
Формат/Информация : Audio Coding 3
Расширение режима : CM (complete main)
Параметр Endianness формата : Big
Идентификатор кодека : A_AC3
Продолжительность : 2 ч. 25 м.
Вид битрейта : Постоянный
Битрейт : 192 Кбит/сек
Каналы : 2 канала
Расположение каналов : Front: L R
Частота : 48,0 КГц
Метод сжатия : С потерями
Размер потока : 200 Мбайт (2%)
Заголовок : DVO - НТВ+
Язык : Russian
Default : Да
Forced : Нет
Аудио #2
Идентификатор : 3
Формат : AC-3
Формат/Информация : Audio Coding 3
Расширение режима : CM (complete main)
Параметр Endianness формата : Big
Идентификатор кодека : A_AC3
Продолжительность : 2 ч. 25 м.
Вид битрейта : Постоянный
Битрейт : 192 Кбит/сек
Каналы : 2 канала
Расположение каналов : Front: L R
Частота : 48,0 КГц
Метод сжатия : С потерями
Размер потока : 200 Мбайт (2%)
Заголовок : AVO - Гаврилов
Язык : Russian
Default : Нет
Forced : Нет
Аудио #3
Идентификатор : 4
Формат : AC-3
Формат/Информация : Audio Coding 3
Расширение режима : CM (complete main)
Параметр Endianness формата : Big
Идентификатор кодека : A_AC3
Продолжительность : 2 ч. 25 м.
Вид битрейта : Постоянный
Битрейт : 640 Кбит/сек
Каналы : 2 канала
Расположение каналов : Front: L R
Частота : 48,0 КГц
Метод сжатия : С потерями
Размер потока : 665 Мбайт (7%)
Заголовок : AVO - Карповский
Язык : Russian
Default : Нет
Forced : Нет
Аудио #4
Идентификатор : 5
Формат : AC-3
Формат/Информация : Audio Coding 3
Расширение режима : CM (complete main)
Параметр Endianness формата : Big
Идентификатор кодека : A_AC3
Продолжительность : 2 ч. 25 м.
Вид битрейта : Постоянный
Битрейт : 640 Кбит/сек
Каналы : 2 канала
Расположение каналов : Front: L R
Частота : 48,0 КГц
Метод сжатия : С потерями
Размер потока : 665 Мбайт (7%)
Язык : English
Default : Нет
Forced : Нет
Меню
00:00:00.000 : en:
00:19:22.868 : en:
00:41:04.670 : en:
00:59:57.844 : en:
01:26:49.493 : en:
01:39:43.894 : en:
01:54:34.283 : en:
02:08:52.099 : en:

Скриншоты

[Профиль] [ЛС]
Показать сообщения:    

Текущее время: Сегодня 15:59

Часовой пояс: GMT



Вы не можете начинать темы
Вы не можете отвечать на сообщения
Вы не можете редактировать свои сообщения
Вы не можете удалять свои сообщения
Вы не можете голосовать в опросах
Вы не можете прикреплять файлы к сообщениям
Вы не можете скачивать файлы