Кулак ярости / Fist Of Fury / Jing wu men (1972) BDRip 1080p | FRA Transfer

 
Автор Сообщение

sergej644 ®

Пол:

Стаж: 4 года 11 месяцев

Сообщений: 6040

Откуда: Soviet Union



Награды: Нет

Торрент-статистика

Создавать темы 31-Окт-2014 12:17

[Цитировать]

Информация о фильме
Название: Кулак ярости
Оригинальное: Fist Of Fury (Jing wu men)
Год выхода: 1972
Выпущено: Golden Harvest Company Ltd.
Страна: Гонконг
Жанр: Боевик, триллер, драма, мелодрама
Продолжительность: 01:46:50
Перевод: Профессиональный многоголосый, двухголосый, авторский
Режиссер: Вэй Ло
В ролях: Брюс Ли, Нора Миао, Джеймс Тьен, Мария Йи, Роберт Бейкер, Фу Чинг Чен, Сань Чинь, Инь-Чиэ Хань, Рики Хашимото, Дзюн Кацумура, Чун Синь Хуан, Куин Ли, Фенг Тиен, Йин Чи Ли, Тони Лю, Ло Вэй, Фанг Йи, Вэй Пинао, Билли Чан, Хеи Чан, Чинг-Йинг Лам, Юникорн Чан, Александр Гранд, Джим Джеймс, Тсим По Шэм, Юэнь Бяо, Кори Юэнь, Юэнь Ва
-Сюжет фильма
Искусный и быстрый, как молния, мастер восточных боевых искусств Чен Жен возвращается в свою бывшую школу, где его ждет страшная новость. Зверски убит глубоко почитаемый наставник, преподававший кун-фу и карате. Действие фильма происходит в 1908 году в оккупированном японцами Шанхае. Нападение на школу и убийство учителя было организовано одной из японских школ бушидо. Зная, что власти и пальцем не пошевелят, чтобы привлечь преступников к ответственности, Чен Жен обрушивает на злодеев свой кулак ярости.-Файл
Кодек: x264
Формат: MKV
Качество: BDRip 1080p (Источник: La Fureur de Vaincre 1972 Blu-ray FRA 1080p AVC DTS-HD MA 7.1-WiHD)
Видео: MPEG-4 AVC (2.35:1) 1920x816 pix, 23.976 fps, 9310 kbps
Аудио I: Dolby Digital (5.1) 16 bit, 48 kHz, 448 kbps (MVO "Superbit")
Аудио II: Dolby Digital (5.1) 16 bit, 48 kHz, 448 kbps (AVO "В. Королёв")
Аудио III: Dolby Digital (2.0) 16 bit, 48 kHz, 192 kbps (DVO)
Субтитры: SRT Русские, Английские
Меню: Сохранены оригинальные чаптеры Blu-ray

MI & x264

General
Unique ID : 236688136275760206940230476819973573385 (0xB2107A170049D183BAFF574B4F6C8B09)
Complete name : D:AlexМои документыXviD4PSPКулак ярости (1972) BDRip (1080p).mkv
Format : Matroska
Format version : Version 2
File size : 7.76 GiB
Duration : 1h 46mn
Overall bit rate : 10.4 Mbps
Movie name : Кулак ярости (1972) BDRip (1080p)
Encoded date : UTC 2014-09-06 07:55:49
Writing application : mkvmerge v5.8.0 ('No Sleep / Pillow') built on Sep 2 2012 15:37:04
Writing library : libebml v1.2.3 + libmatroska v1.3.0
Video
ID : 1
Format : AVC
Format/Info : Advanced Video Codec
Format profile : High@L4.1
Format settings, CABAC : Yes
Format settings, ReFrames : 5 frames
Codec ID : V_MPEG4/ISO/AVC
Duration : 1h 46mn
Bit rate : 9 310 Kbps
Width : 1 920 pixels
Height : 816 pixels
Display aspect ratio : 2.35:1
Frame rate mode : Constant
Frame rate : 23.976 fps
Color space : YUV
Chroma subsampling : 4:2:0
Bit depth : 8 bits
Scan type : Progressive
Bits/(Pixel*Frame) : 0.248
Stream size : 6.79 GiB (88%)
Title : Release by Alex260680
Writing library : x264 core 142 r2479 dd79a61
Encoding settings : cabac=1 / ref=5 / deblock=1:-2:-1 / analyse=0x3:0x133 / me=umh / subme=11 / psy=1 / psy_rd=1.00:0.10 / mixed_ref=1 / me_range=32 / chroma_me=1 / trellis=2 / 8x8dct=1 / cqm=0 / deadzone=21,11 / fast_pskip=0 / chroma_qp_offset=-3 / threads=6 / lookahead_threads=1 / sliced_threads=0 / nr=0 / decimate=0 / interlaced=0 / bluray_compat=0 / constrained_intra=0 / bframes=8 / b_pyramid=2 / b_adapt=2 / b_bias=0 / direct=3 / weightb=1 / open_gop=0 / weightp=2 / keyint=240 / keyint_min=23 / scenecut=40 / intra_refresh=0 / rc=2pass / mbtree=0 / bitrate=9310 / ratetol=1.0 / qcomp=0.60 / qpmin=0 / qpmax=69 / qpstep=4 / cplxblur=20.0 / qblur=0.5 / ip_ratio=1.40 / pb_ratio=1.30 / aq=1:1.00
Language : Chinese
Default : Yes
Forced : No
Audio #1
ID : 2
Format : AC-3
Format/Info : Audio Coding 3
Mode extension : CM (complete main)
Format settings, Endianness : Big
Codec ID : A_AC3
Duration : 1h 46mn
Bit rate mode : Constant
Bit rate : 448 Kbps
Channel(s) : 6 channels
Channel positions : Front: L C R, Side: L R, LFE
Sampling rate : 48.0 KHz
Bit depth : 16 bits
Compression mode : Lossy
Stream size : 342 MiB (4%)
Title : MVO (Superbit)
Language : Russian
Default : Yes
Forced : No
Audio #2
ID : 3
Format : AC-3
Format/Info : Audio Coding 3
Mode extension : CM (complete main)
Format settings, Endianness : Big
Codec ID : A_AC3
Duration : 1h 46mn
Bit rate mode : Constant
Bit rate : 448 Kbps
Channel(s) : 6 channels
Channel positions : Front: L C R, Side: L R, LFE
Sampling rate : 48.0 KHz
Bit depth : 16 bits
Compression mode : Lossy
Stream size : 342 MiB (4%)
Title : AVO (Королёв)
Language : Russian
Default : No
Forced : No
Audio #3
ID : 4
Format : AC-3
Format/Info : Audio Coding 3
Mode extension : CM (complete main)
Format settings, Endianness : Big
Codec ID : A_AC3
Duration : 1h 46mn
Bit rate mode : Constant
Bit rate : 192 Kbps
Channel(s) : 2 channels
Channel positions : Front: L R
Sampling rate : 48.0 KHz
Bit depth : 16 bits
Compression mode : Lossy
Stream size : 147 MiB (2%)
Title : DVO
Language : Russian
Default : No
Forced : No
Text #1
ID : 5
Format : UTF-8
Codec ID : S_TEXT/UTF8
Codec ID/Info : UTF-8 Plain Text
Language : Russian
Default : No
Forced : No
Text #2
ID : 6
Format : UTF-8
Codec ID : S_TEXT/UTF8
Codec ID/Info : UTF-8 Plain Text
Language : English
Default : No
Forced : No
Menu
00:00:00.000 : en:Chapter1
00:04:18.466 : en:Chapter2
00:06:05.656 : en:Chapter3
00:08:52.197 : en:Chapter4
00:15:57.373 : en:Chapter5
00:26:17.826 : en:Chapter6
00:29:33.896 : en:Chapter7
00:39:04.675 : en:Chapter8
00:45:18.925 : en:Chapter9
00:49:08.862 : en:Chapter10
00:56:56.579 : en:Chapter11
01:01:14.753 : en:Chapter12
01:09:23.368 : en:Chapter13
01:16:25.038 : en:Chapter14
01:23:20.662 : en:Chapter15
01:28:38.521 : en:Chapter16
01:36:37.750 : en:Chapter17
01:41:55.150 : en:Chapter18-x264 [info]: frame I:932 Avg QP:17.54 size:174353
x264 [info]: frame P:35577 Avg QP:20.24 size: 84242
x264 [info]: frame B:117178 Avg QP:21.59 size: 36694
x264 [info]: consecutive B-frames: 2.0% 3.4% 7.0% 31.8% 20.6% 28.9% 3.7% 2.3% 0.3%
ДополнительноИспользуемое программное обеспечение: "Eac3to", "XviD4PSP", "Sonic Foundry Soft Encode", "SupRip", "MKVToolNix"
-- --
[Профиль] [ЛС]
Показать сообщения:    

Текущее время: Сегодня 08:47

Часовой пояс: GMT



Вы не можете начинать темы
Вы не можете отвечать на сообщения
Вы не можете редактировать свои сообщения
Вы не можете удалять свои сообщения
Вы не можете голосовать в опросах
Вы не можете прикреплять файлы к сообщениям
Вы не можете скачивать файлы