Кукловод / He's Out There (2018) BDRip 1080p | HDrezka Studio

 
Author Message

BOSS ®

Gender:

Longevity: 4 years 9 months

Posts: 14123

Location: ODESSA



: 22 ()

Top Seeder 4 (1) Mega Seeder 4 (1) Top Keeper 1 (1)
Торрент-статистика

Post 13-Jan-2019 11:53

[Quote]

Информация о фильме
Название: Кукловод
Оригинальное название: He's Out There
Год выхода: 2018
Жанр: ужасы, триллер
Режиссер: Куинн Лэшер
В ролях: Ивонн Страховски, Анна Пнёвски, Эбигейл Пнёвски, Райан Макдональд, Джастин Брюнинг, Джулиан Бэйли, Стефани Коста
О фильме: Отправившись отдыхать в уединенный домик у озера, мать и две ее маленькие дочери даже не подозревают, что попали в изощренную ловушку, спланированную психопатом в маске.-
Страна: США
Студия: Screen Gems, Unbroken Pictures
Продолжительность: 01:29:30
Перевод: Профессиональный многоголосый [HDrezka Studio]
Файл
Кодек: MPEG-4 AVC
Качество: BDRip 1080p
Видео: 1920x800, 8981 kb/s, 23.976 fps
Звук:
1) 192 kb/s, 2 ch, 48000 kHz, AC3 [RUS] | HDrezka Studio
2) 640 kb/s, 6 ch, 48000 kHz, AC3 [ENG] | Английский оригинал
Субтитры: Отсутствуют

MI

Формат : Matroska
Версия формата : Version 4 / Version 2
Размер файла : 6,13 Гбайт
Продолжительность : 1 ч. 29 м.
Общий поток : 9803 Кбит/сек
Дата кодирования : UTC 2019-01-12 15:13:44
Программа кодирования : mkvmerge v8.3.0 ('Over the Horizon') 64bit
Библиотека кодирования : libebml v1.3.1 + libmatroska v1.4.2
Видео
Идентификатор : 1
Формат : AVC
Формат/Информация : Advanced Video Codec
Профиль формата : High@L4.1
Настройки формата : CABAC / 5 Ref Frames
Параметр CABAC формата : Да
Параметр RefFrames формата : 5 кадров
Идентификатор кодека : V_MPEG4/ISO/AVC
Продолжительность : 1 ч. 29 м.
Битрейт : 8981 Кбит/сек
Ширина : 1920 пикселей
Высота : 800 пикселей
Соотношение сторон : 2,40:1
Режим частоты кадров : Постоянный
Частота кадров : 23,976 (24000/1001) кадра/сек
Цветовое пространство : YUV
Субдискретизация насыщенности : 4:2:0
Битовая глубина : 8 бит
Тип развёртки : Прогрессивная
Бит/(Пиксели*Кадры) : 0.244
Размер потока : 5,61 Гбайт (91%)
Библиотека кодирования : x264 core 157 r2935 545de2f
Настройки программы : cabac=1 / ref=5 / deblock=1:0:0 / analyse=0x3:0x113 / me=umh / subme=8 / psy=1 / psy_rd=1.00:0.00 / mixed_ref=1 / me_range=16 / chroma_me=1 / trellis=2 / 8x8dct=1 / cqm=0 / deadzone=21,11 / fast_pskip=0 / chroma_qp_offset=-2 / threads=25 / lookahead_threads=4 / sliced_threads=0 / nr=0 / decimate=1 / interlaced=0 / bluray_compat=0 / constrained_intra=0 / bframes=3 / b_pyramid=2 / b_adapt=1 / b_bias=0 / direct=3 / weightb=1 / open_gop=0 / weightp=2 / keyint=250 / keyint_min=23 / scenecut=40 / intra_refresh=0 / rc_lookahead=50 / rc=2pass / mbtree=1 / bitrate=8981 / ratetol=1.0 / qcomp=0.60 / qpmin=0 / qpmax=69 / qpstep=4 / cplxblur=20.0 / qblur=0.5 / ip_ratio=1.40 / aq=1:1.00
Язык : English
Default : Да
Forced : Нет
Аудио #1
Идентификатор : 2
Формат : AC-3
Формат/Информация : Audio Coding 3
Идентификатор кодека : A_AC3
Продолжительность : 1 ч. 29 м.
Вид битрейта : Постоянный
Битрейт : 192 Кбит/сек
Каналы : 2 канала
Расположение каналов : Front: L R
Частота : 48,0 КГц
Частота кадров : 31,250 кадров/сек (1536 SPF)
Битовая глубина : 16 бит
Метод сжатия : С потерями
Размер потока : 123 Мбайт (2%)
Заголовок : HDRezka Studio
Язык : Russian
Default : Да
Forced : Да
Аудио #2
Идентификатор : 3
Формат : AC-3
Формат/Информация : Audio Coding 3
Идентификатор кодека : A_AC3
Продолжительность : 1 ч. 29 м.
Вид битрейта : Постоянный
Битрейт : 640 Кбит/сек
Каналы : 6 каналов
Расположение каналов : Front: L C R, Side: L R, LFE
Частота : 48,0 КГц
Частота кадров : 31,250 кадров/сек (1536 SPF)
Битовая глубина : 16 бит
Метод сжатия : С потерями
Размер потока : 410 Мбайт (7%)
Заголовок : Original
Язык : English
Default : Нет
Forced : Нет
Меню
00:00:00.000 : en:00:00:00.000
00:05:49.224 : en:00:05:49.224
00:12:54.065 : en:00:12:54.065
00:20:55.504 : en:00:20:55.504
00:28:06.059 : en:00:28:06.059
00:36:00.408 : en:00:36:00.408
00:42:27.879 : en:00:42:27.879
00:52:17.217 : en:00:52:17.217
00:59:10.839 : en:00:59:10.839
01:05:24.587 : en:01:05:24.587
01:11:00.423 : en:01:11:00.423
01:19:15.250 : en:01:19:15.250

Скриншоты

[Profile] [PM]
Display posts from previous:    

The time now is: Today 08:17

All times are GMT



You cannot post new topics in this forum
You cannot reply to topics in this forum
You cannot edit your posts in this forum
You cannot delete your posts in this forum
You cannot vote in polls in this forum
You cannot attach files in this forum
You cannot download files in this forum