Кукловод / He's Out There (2018) BDRip | UKR

 
Author Message

BOSS ®

Gender:

Longevity: 4 years 9 months

Posts: 14123

Location: ODESSA



: 22 ()

Top Seeder 2 (1) Mega Seeder 4 (1) Top Keeper 4 (1)
Торрент-статистика

Post 10-Jan-2019 19:36

[Quote]

Информация о фильме
Название: Кукловод
Оригинальное название: He's Out There
Год выхода: 2018
Жанр: Ужасы
Режиссер: Куинн Лэшер
В ролях: Ивонн Страховски, Джастин Бруенинг, Анна Пниовски, Эбигейл Пнёвски, Стефани Коста, Джулиан Бэйли
О фильме:
Отправившись отдыхать в уединенный домик у озера, мать и две ее маленькие дочери даже не подозревают, что попали в изощренную ловушку, спланированную психопатом в маске.

Страна: США
Продолжительность: 01:29:30
Перевод: Профессиональный (многоголосый, закадровый) [Украинский]
Файл
Кодек: XviD
Качество: BDRip
Видео: MPEG4, XviD, 720x304 (2.35:1), 23.976 fps, 2 134 kb/s
Аудио 1: AC-3, 48.0 kHz, 2 ch, 192 kb/s | UKR
Аудио 2: AC-3, 48.0 KHz, 6 ch, 448 kb/s | ENG
Субтитры: Английские (внешние)
Сэмпл
Рекламы нет

MI

Общее
Полное имя : Hes.Out.There.2018.BDRip.avi
Формат : AVI
Формат/Информация : Audio Video Interleave
Размер файла : 1,74 Гбайт
Продолжительность : 1 ч. 29 м.
Общий поток : 2783 Кбит/сек
Программа кодирования : VirtualDubMod 1.5.10.3 (build 2550/release)
Библиотека кодирования : VirtualDubMod build 2550/release
Видео
Идентификатор : 0
Формат : MPEG-4 Visual
Профиль формата : Advanced Simple@L5
Настройки формата : BVOP1 / Custom Matrix
Параметр BVOP формата : 1
Параметр QPel формата : Нет
Параметр GMC формата : Без точки перехода
Параметр матрицы формата : Выборочная
Идентификатор кодека : XVID
Идентификатор кодека/Подсказка : XviD
Продолжительность : 1 ч. 29 м.
Битрейт : 2134 Кбит/сек
Ширина : 720 пикселей
Высота : 304 пикселя
Соотношение сторон : 2,35:1
Частота кадров : 23,976 (24000/1001) кадра/сек
Цветовое пространство : YUV
Субдискретизация насыщенности : 4:2:0
Битовая глубина : 8 бит
Тип развёртки : Прогрессивная
Метод сжатия : С потерями
Бит/(Пиксели*Кадры) : 0.407
Размер потока : 1,33 Гбайт (77%)
Библиотека кодирования : XviD 65
Аудио #1
Идентификатор : 1
Формат : AC-3
Формат/Информация : Audio Coding 3
Коммерческое название : Dolby Digital
Идентификатор кодека : 2000
Продолжительность : 1 ч. 29 м.
Вид битрейта : Постоянный
Битрейт : 192 Кбит/сек
Каналы : 2 канала
Channel layout : L R
Частота : 48,0 КГц
Частота кадров : 31,250 кадров/сек (1536 SPF)
Битовая глубина : 16 бит
Метод сжатия : С потерями
Размер потока : 123 Мбайт (7%)
Выравнивание : Соединение по промежуткам
Продолжительность промежутка : 160 мс. (3,84 видеокадра)
Время предзагрузки промежутка : 640 мс.
Аудио #2
Идентификатор : 2
Формат : AC-3
Формат/Информация : Audio Coding 3
Коммерческое название : Dolby Digital
Идентификатор кодека : 2000
Продолжительность : 1 ч. 29 м.
Продолжительность оригинала : 1 ч. 29 м.
Вид битрейта : Постоянный
Битрейт : 448 Кбит/сек
Каналы : 6 каналов
Channel layout : L R C LFE Ls Rs
Частота : 48,0 КГц
Частота кадров : 31,250 кадров/сек (1536 SPF)
Битовая глубина : 16 бит
Метод сжатия : С потерями
Размер потока : 287 Мбайт (16%)
Выравнивание : Разделение по промежуткам
Продолжительность промежутка : 69 мс. (1,64 видеокадра)
Время предзагрузки промежутка : 548 мс.

Скриншоты

[Profile] [PM]
Display posts from previous:    

The time now is: Today 08:57

All times are GMT



You cannot post new topics in this forum
You cannot reply to topics in this forum
You cannot edit your posts in this forum
You cannot delete your posts in this forum
You cannot vote in polls in this forum
You cannot attach files in this forum
You cannot download files in this forum