Кукловод: Самый маленький рейх / Puppet Master: The Littlest Reich (2018) WEBRip | L2

 
Author Message

BOSS ®

Gender:

Longevity: 5 years 1 month

Posts: 14195

Location: ODESSA



: 22 ()

Top Keeper 4 (1) Top Keeper 3 (1) Mega Seeder 4 (1)
Торрент-статистика

Post 04-Oct-2018 17:25

[Quote]

Информация о фильме
Название: Кукловод: Самый маленький рейх
Оригинальное название: Puppet Master: The Littlest Reich
Год выхода: 2018
Жанр: Ужасы
Режиссер: Сонни Лагуна, Томмю Виклунд
В ролях: Майкл Паре, Томас Леннон, Шарлин Йи, Удо Кир, Барбара Крэмптон, Нельсон Франклин, Маттиас Хьюз, Дженни Пеллисер, Тина Паркер, Бетси Холт и другие
О фильме:
Молодой человек обнаруживает потрёпанную куклу в шкафу покойного брата. Он решает продать куклу на конвенте в Орегоне, где отмечают 30-летие знаменитых убийств Тулона. Но время аукциона неведомая злая сила оживляет всех выставленных на продажу кукол, и те немедленно устраивают кровавую баню.

Страна: Великобритания, США, Cinestate,Ghost Horse,Zero Trans Fat Productions
Продолжительность: 01:30:37
Перевод: Любительский (двухголосый закадровый) | HiWay Grope
Файл
Кодек: XviD
Качество: WEBRip
Видео: 720x304, 25 fps, ~1666 kbps, 0.30 bit/pixel
Звук:
Аудио rus: AC3, 48 kHz, 6 ch, 384 Kbps
Субтитры: отсутствуют
Реклама: присутствует
Семпл

MediaInfo:

General
Complete name : D:Puppet.Master.The.Littlest.Reich.2018.WEBRip.HiWayGropePuppet.Master.The.Littlest.Reich.2018.WEBRip.HiWayGrope.avi
Format : AVI
Format/Info : Audio Video Interleave
File size : 1.30 GiB
Duration : 1 h 30 min
Overall bit rate : 2 060 kb/s
Writing application : VirtualDubMod 1.5.10.2 (build 2540/release)
Writing library : VirtualDubMod build 2540/release
Video
ID : 0
Format : MPEG-4 Visual
Format profile : Advanced Simple@L5
Format settings : BVOP1
Format settings, BVOP : 1
Format settings, QPel : No
Format settings, GMC : No warppoints
Format settings, Matrix : Default (H.263)
Codec ID : XVID
Codec ID/Hint : XviD
Duration : 1 h 30 min
Bit rate : 1 666 kb/s
Width : 720 pixels
Height : 304 pixels
Display aspect ratio : 2.40:1
Frame rate : 25.000 FPS
Color space : YUV
Chroma subsampling : 4:2:0
Bit depth : 8 bits
Scan type : Progressive
Compression mode : Lossy
Bits/(Pixel*Frame) : 0.305
Stream size : 1.05 GiB (81%)
Writing library : XviD 67
Audio
ID : 1
Format : AC-3
Format/Info : Audio Coding 3
Codec ID : 2000
Duration : 1 h 30 min
Bit rate mode : Constant
Bit rate : 384 kb/s
Channel(s) : 6 channels
Channel positions : Front: L C R, Side: L R, LFE
Sampling rate : 48.0 kHz
Frame rate : 31.250 FPS (1536 SPF)
Bit depth : 16 bits
Compression mode : Lossy
Stream size : 249 MiB (19%)
Alignment : Split accross interleaves
Interleave, duration : 40 ms (1.00 video frame)
Interleave, preload duration : 500 ms
Service kind : Complete Main

Скриншоты

Релиз от: HiWay Grope
[Profile] [PM]
Display posts from previous:    

The time now is: Today 15:15

All times are GMT



You cannot post new topics in this forum
You cannot reply to topics in this forum
You cannot edit your posts in this forum
You cannot delete your posts in this forum
You cannot vote in polls in this forum
You cannot attach files in this forum
You cannot download files in this forum