(Russian Rock) Кузьмин и гр.Динамик - Лучшее (2CD) - 1982 [FLAC, image+.cue, lossless]

 
Автор Сообщение

sergej644 ®

Пол:

Стаж: 4 года 11 месяцев

Сообщений: 6046

Откуда: Soviet Union



Награды: Нет

Торрент-статистика

Создавать темы 04-Янв-2016 19:58

[Цитировать]

--Кузьмин и гр.Динамик - Лучшее (2CD)
Год издания: 1982
Страна: USSR
Жанр: Russian Rock
Продолжительность: 01:33:45- Лейбл издания: студия Союз
Страна-выпуска диска: Russia
Номер по каталогу: SZCD - 1048-98
Формат: FLAC
Битрейт аудио: lossless
Тип рипа: image+.cue
Наличие сканов в содержимом раздачи: да
-

CD 1 || 00:47:17

01.Делай физзарядку (39-й круг) (04:16)
02.По-прежнему вдвоем (Капюшон) (04:14)
03.Музыканты (В воскресный день) (07:10)
04.Тоска (08:31)
05.Телефон (05:55)
06.Почему мы пьем вино? (07:01)
07.Кто не успел, тот опоздал (05:57)
08.На пляже (Плещет волна) (04:16)

CD 2 || 00:46:28

01.Проявленные лица (07:08)
02.Мама, я попал в беду (07:36)
03.Мама купила гитару (05:19)
04.Ливень (06:31)
05.Берега (04:06)
06.Теряю тебя (04:36)
07.Спортлото (05:08)
08.Пусть играет музыка (06:08)
--

лог создания рипа

CD 1

Exact Audio Copy V1.1 from 23. June 2015
Отчёт EAC об извлечении, выполненном 26. июля 2015, 21:09
В.Кузьмин&Динамик / Динамик-82
Дисковод: TSSTcorpCDDVDW SH-222BB   Adapter: 1  ID: 0
Режим чтения                 : Достоверность
Использование точного потока : Да
Отключение кэша аудио        : Да
Использование указателей C2  : Нет
Коррекция смещения при чтении                     : 6
Способность читать области Lead-in и Lead-out     : Нет
Заполнение пропущенных сэмплов тишиной            : Да
Удаление блоков с тишиной в начале и конце        : Нет
При вычислениях CRC использовались нулевые сэмплы : Да
Интерфейс                                         : Встроенный Win32-интерфейс для Win NT/2000
Выходной формат          : Пользовательский кодировщик
Выбранный битрейт        : 768 kBit/s
Качество                 : Высокий
Добавление ID3-тега      : Нет
Утилита сжатия           : C:\Program Files (x86)\Exact Audio Copy\FLAC\FLAC.EXE
Дополнительные параметры : -6 -V -T "ARTIST=%artist%" -T "TITLE=%title%" -T "ALBUM=%albumtitle%" -T "DATE=%year%" -T "TRACKNUMBER=%tracknr%" -T "GENRE=%genre%" -T "COMMENT=%comment%" -T "BAND=%albuminterpret%" -T "ALBUMARTIST=%albuminterpret%" -T "COMPOSER=%composer%" %haslyrics%--tag-from-file=LYRICS="%lyricsfile%"%haslyrics% -T "DISCNUMBER=%cdnumber%" -T "TOTALDISCS=%totalcds%" -T "TOTALTRACKS=%numtracks%" %hascover%--picture="%coverfile%"%hascover% %source% -o %dest%
TOC извлечённого CD
     Трек |   Старт  | Длительность | Начальный сектор | Конечный сектор
    ---------------------------------------------------------------------
       1  |  0:00.10 |    4:15.40   |          10      |      19174
       2  |  4:15.50 |    4:14.00   |       19175      |      38224
       3  |  8:29.50 |    7:09.45   |       38225      |      70444
       4  | 15:39.20 |    8:30.47   |       70445      |     108741
       5  | 24:09.67 |    5:54.18   |      108742      |     135309
       6  | 30:04.10 |    7:01.00   |      135310      |     166884
       7  | 37:05.10 |    5:56.30   |      166885      |     193614
       8  | 43:01.40 |    4:15.15   |      193615      |     212754
Характеристики диапазона извлечения и сообщения об ошибках
Выбранный диапазон
     Имя файла D:\FLAC\Kuzmin\CD_1\В.Кузьмин&Динамик - Динамик-82.wav
     Пиковый уровень 86.9 %
     Скорость извлечения 2.3 X
     Качество диапазона 100.0 %
     CRC теста BBC94A40
     CRC копии BBC94A40
     Копирование... OK
Ошибок не произошло
Конец отчёта
---- CUETools DB Plugin V2.1.6

CD 2

Exact Audio Copy V1.1 from 23. June 2015
Отчёт EAC об извлечении, выполненном 26. июля 2015, 21:55
В.Кузьмин&Динамик / Динамик-82
Дисковод: TSSTcorpCDDVDW SH-222BB   Adapter: 1  ID: 0
Режим чтения                 : Достоверность
Использование точного потока : Да
Отключение кэша аудио        : Да
Использование указателей C2  : Нет
Коррекция смещения при чтении                     : 6
Способность читать области Lead-in и Lead-out     : Нет
Заполнение пропущенных сэмплов тишиной            : Да
Удаление блоков с тишиной в начале и конце        : Нет
При вычислениях CRC использовались нулевые сэмплы : Да
Интерфейс                                         : Встроенный Win32-интерфейс для Win NT/2000
Выходной формат          : Пользовательский кодировщик
Выбранный битрейт        : 768 kBit/s
Качество                 : Высокий
Добавление ID3-тега      : Нет
Утилита сжатия           : C:\Program Files (x86)\Exact Audio Copy\FLAC\FLAC.EXE
Дополнительные параметры : -6 -V -T "ARTIST=%artist%" -T "TITLE=%title%" -T "ALBUM=%albumtitle%" -T "DATE=%year%" -T "TRACKNUMBER=%tracknr%" -T "GENRE=%genre%" -T "COMMENT=%comment%" -T "BAND=%albuminterpret%" -T "ALBUMARTIST=%albuminterpret%" -T "COMPOSER=%composer%" %haslyrics%--tag-from-file=LYRICS="%lyricsfile%"%haslyrics% -T "DISCNUMBER=%cdnumber%" -T "TOTALDISCS=%totalcds%" -T "TOTALTRACKS=%numtracks%" %hascover%--picture="%coverfile%"%hascover% %source% -o %dest%
TOC извлечённого CD
     Трек |   Старт  | Длительность | Начальный сектор | Конечный сектор
    ---------------------------------------------------------------------
       1  |  0:00.10 |    7:07.10   |          10      |      32044
       2  |  7:07.20 |    7:35.17   |       32045      |      66186
       3  | 14:42.37 |    5:18.25   |       66187      |      90061
       4  | 20:00.62 |    6:30.45   |       90062      |     119356
       5  | 26:31.32 |    4:05.13   |      119357      |     137744
       6  | 30:36.45 |    4:35.60   |      137745      |     158429
       7  | 35:12.30 |    5:07.35   |      158430      |     181489
       8  | 40:19.65 |    6:08.00   |      181490      |     209089
Характеристики диапазона извлечения и сообщения об ошибках
Выбранный диапазон
     Имя файла D:\FLAC\Kuzmin\CD_2\В.Кузьмин&Динамик - Динамик-82.wav
     Пиковый уровень 99.9 %
     Скорость извлечения 2.3 X
     Качество диапазона 100.0 %
     CRC теста C1B4A8A1
     CRC копии C1B4A8A1
     Копирование... OK
Ошибок не произошло
Конец отчёта
---- CUETools DB Plugin V2.1.6

содержание индексной карты *cue

CD 1

REM GENRE Rock
REM DATE 1982
REM DISCID 5E0B1408
REM COMMENT "ExactAudioCopy v1.1"
PERFORMER "В.Кузьмин&Динамик"
TITLE "Динамик-82"
FILE "В.Кузьмин&Динамик - Динамик-82.flac" WAVE
  TRACK 01 AUDIO
    TITLE "Делай физзарядку (39-й круг)"
    PERFORMER "В.Кузьмин&Динамик"
    INDEX 00 00:00:00
    INDEX 01 00:00:10
  TRACK 02 AUDIO
    TITLE "По-прежнему вдвоем (Капюшон)"
    PERFORMER "В.Кузьмин&Динамик"
    INDEX 01 04:15:50
  TRACK 03 AUDIO
    TITLE "Музыканты (В воскресный день)"
    PERFORMER "В.Кузьмин&Динамик"
    INDEX 01 08:29:50
  TRACK 04 AUDIO
    TITLE "Тоска"
    PERFORMER "В.Кузьмин&Динамик"
    INDEX 01 15:39:20
  TRACK 05 AUDIO
    TITLE "Телефон"
    PERFORMER "В.Кузьмин&Динамик"
    INDEX 01 24:09:67
  TRACK 06 AUDIO
    TITLE "Почему мы пьем вино?"
    PERFORMER "В.Кузьмин&Динамик"
    INDEX 01 30:04:10
  TRACK 07 AUDIO
    TITLE "Кто не успел, тот опоздал"
    PERFORMER "В.Кузьмин&Динамик"
    INDEX 01 37:05:10
  TRACK 08 AUDIO
    TITLE "На пляже (Плещет волна)"
    PERFORMER "В.Кузьмин&Динамик"
    INDEX 01 43:01:40

CD 2

REM GENRE Rock
REM DATE 1982
REM DISCID 610AE308
REM COMMENT "ExactAudioCopy v1.1"
PERFORMER "В.Кузьмин&Динамик"
TITLE "Динамик-82"
FILE "В.Кузьмин&Динамик - Динамик-82.flac" WAVE
  TRACK 01 AUDIO
    TITLE "Проявленные лица"
    PERFORMER "В.Кузьмин&Динамик"
    INDEX 00 00:00:00
    INDEX 01 00:00:10
  TRACK 02 AUDIO
    TITLE "Мама, я попал в беду"
    PERFORMER "В.Кузьмин&Динамик"
    INDEX 01 07:07:20
  TRACK 03 AUDIO
    TITLE "Мама купила гитару"
    PERFORMER "В.Кузьмин&Динамик"
    INDEX 01 14:42:37
  TRACK 04 AUDIO
    TITLE "Ливень"
    PERFORMER "В.Кузьмин&Динамик"
    INDEX 01 20:00:62
  TRACK 05 AUDIO
    TITLE "Берега"
    PERFORMER "В.Кузьмин&Динамик"
    INDEX 01 26:31:32
  TRACK 06 AUDIO
    TITLE "Теряю тебя"
    PERFORMER "В.Кузьмин&Динамик"
    INDEX 01 30:36:45
  TRACK 07 AUDIO
    TITLE "Спортлото"
    PERFORMER "В.Кузьмин&Динамик"
    INDEX 01 35:12:30
  TRACK 08 AUDIO
    TITLE "Пусть играет музыка"
    PERFORMER "В.Кузьмин&Динамик"
    INDEX 01 40:19:65

Лог Audiochecker:

CD 1

Начато: вторник, 21. 07. 2015. - 21:02.18
Найдено файлов: 8
1 -===- трек 1 в приводе TSSTcorpCDDVDW SH-222BB
  Трек успешно извлечён
  Заключение: этот трек - CDDA с вероятностью 100%
  Временный файл удалён.
2 -===- трек 2 в приводе TSSTcorpCDDVDW SH-222BB
  Трек успешно извлечён
  Заключение: этот трек - CDDA с вероятностью 100%
  Временный файл удалён.
3 -===- трек 3 в приводе TSSTcorpCDDVDW SH-222BB
  Трек успешно извлечён
  Заключение: этот трек - CDDA с вероятностью 99%
  Временный файл удалён.
4 -===- трек 4 в приводе TSSTcorpCDDVDW SH-222BB
  Трек успешно извлечён
  Заключение: этот трек - CDDA с вероятностью 100%
  Временный файл удалён.
5 -===- трек 5 в приводе TSSTcorpCDDVDW SH-222BB
  Трек успешно извлечён
  Заключение: этот трек - CDDA с вероятностью 100%
  Временный файл удалён.
6 -===- трек 6 в приводе TSSTcorpCDDVDW SH-222BB
  Трек успешно извлечён
  Заключение: этот трек - CDDA с вероятностью 100%
  Временный файл удалён.
7 -===- трек 7 в приводе TSSTcorpCDDVDW SH-222BB
  Трек успешно извлечён
  Заключение: этот трек - CDDA с вероятностью 100%
  Временный файл удалён.
8 -===- трек 8 в приводе TSSTcorpCDDVDW SH-222BB
  Трек успешно извлечён
  Заключение: этот трек - CDDA с вероятностью 100%
  Временный файл удалён.
Завершено: вторник, 21. 07. 2015. - 21:21.45 (Время операции: 0:19.26)

CD 2

Начато: вторник, 21. 07. 2015. - 23:09.11
Найдено файлов: 8
1 -===- трек 1 в приводе TSSTcorpCDDVDW SH-222BB
  Трек успешно извлечён
  Заключение: этот трек - CDDA с вероятностью 100%
  Временный файл удалён.
2 -===- трек 2 в приводе TSSTcorpCDDVDW SH-222BB
  Трек успешно извлечён
  Заключение: этот трек - CDDA с вероятностью 99%
  Временный файл удалён.
3 -===- трек 3 в приводе TSSTcorpCDDVDW SH-222BB
  Трек успешно извлечён
  Заключение: этот трек - CDDA с вероятностью 100%
  Временный файл удалён.
4 -===- трек 4 в приводе TSSTcorpCDDVDW SH-222BB
  Трек успешно извлечён
  Заключение: этот трек - CDDA с вероятностью 100%
  Временный файл удалён.
5 -===- трек 5 в приводе TSSTcorpCDDVDW SH-222BB
  Трек успешно извлечён
  Заключение: этот трек - CDDA с вероятностью 100%
  Временный файл удалён.
6 -===- трек 6 в приводе TSSTcorpCDDVDW SH-222BB
  Трек успешно извлечён
  Заключение: этот трек - MPEG с вероятностью 100%
  Временный файл удалён.
7 -===- трек 7 в приводе TSSTcorpCDDVDW SH-222BB
  Трек успешно извлечён
  Заключение: этот трек - CDDA с вероятностью 100%
  Временный файл удалён.
8 -===- трек 8 в приводе TSSTcorpCDDVDW SH-222BB
  Трек успешно извлечён
  Заключение: этот трек - CDDA с вероятностью 100%
  Временный файл удалён.
Завершено: вторник, 21. 07. 2015. - 23:28.22 (Время операции: 0:19.10)
[Профиль] [ЛС]
Показать сообщения:    

Текущее время: Сегодня 22:42

Часовой пояс: GMT



Вы не можете начинать темы
Вы не можете отвечать на сообщения
Вы не можете редактировать свои сообщения
Вы не можете удалять свои сообщения
Вы не можете голосовать в опросах
Вы не можете прикреплять файлы к сообщениям
Вы не можете скачивать файлы