Куба / Cuba (1979) BDRip 720p | P2, P2

 
Автор Сообщение

BOSS ®

Пол:

Стаж: 2 года 1 месяц

Сообщений: 3735

Откуда: ODESSA



Награды: 20 (Подробнее)

Top Seeder 5 (Количество: 1) Mega Seeder 1 (Количество: 1) Top Seeder 2 (Количество: 1)
Торрент-статистика

Создавать темы 26-Сен-2015 21:24

[Цитировать]

Информация о фильме
Название: Куба
Оригинальное название: Cuba
Год выхода: 1979
Жанр: приключения, военный, мелодрама
Режиссер: Ричард Лестер / Richard Lester
В ролях: Шон Коннери, Брук Адамс, Джек Уэстон, Гектор Элизондо
О фильме:
Конец 1950-х. Британского наемника Роберта Дейпса посылают на Кубу для содействия армии генерала Батисты. Предостоит сражаться с армией Кастро. На Кубе Роберт встречает свою старую любовь, которая вышла замуж. Кастро постепенно завоевывает власть на острове, а между главными героями возрождается былое чувство...

Страна: США
Студия: Holmby Pictures
Продолжительность: 02:02:08.224
Перевод: Профессиональный (двухголосый закадровый) НТВ+
Профессиональный (двухголосый закадровый) 5 канал
Файл
Кодек: h.264
Качество: BDRip 720p
Видео: 1280x692 (1.85:1), 23.976 fps, AVC, ~8600 Kbps, 0.405 bits/pixel
Звук: (все моно)
Русский, 48.0 KHz, AC3, 2 ch, 160 Kbps НТВ+
Русский, 48.0 KHz, AC3, 2 ch, 160 Kbps 5 канал
Английский, 48.0 KHz, AC3, 2 ch, 448 Kbps
Субтитры: нет

MI

General
Unique ID : 243607522480749364677673923822353591545 (0xB7451A2B3EB7B82CA80A7E9719032CF9)
Complete name : F:FILMSKuba.1979.BDRip720p.mkv
Format : Matroska
Format version : Version 4 / Version 2
File size : 8.15 GiB
Duration : 2h 2mn
Overall bit rate : 9 559 Kbps
Encoded date : UTC 2015-09-20 19:38:11
Writing application : mkvmerge v8.4.0 ('A better way to fly') 64bit
Writing library : libebml v1.3.1 + libmatroska v1.4.2
DURATION : 02:02:08.224000000
NUMBER_OF_FRAMES : 229007
NUMBER_OF_BYTES : 410380544
_STATISTICS_WRITING_APP : mkvmerge v8.4.0 ('A better way to fly') 64bit
_STATISTICS_WRITING_DATE_UTC : 2015-09-20 19:38:11
_STATISTICS_TAGS : BPS DURATION NUMBER_OF_FRAMES NUMBER_OF_BYTES
Video
ID : 1
Format : AVC
Format/Info : Advanced Video Codec
Format profile : High@L4.1
Format settings, CABAC : Yes
Format settings, ReFrames : 9 frames
Codec ID : V_MPEG4/ISO/AVC
Duration : 2h 2mn
Bit rate : 8 600 Kbps
Width : 1 280 pixels
Height : 692 pixels
Display aspect ratio : 1.85:1
Frame rate mode : Constant
Frame rate : 23.976 fps
Color space : YUV
Chroma subsampling : 4:2:0
Bit depth : 8 bits
Scan type : Progressive
Bits/(Pixel*Frame) : 0.405
Stream size : 7.34 GiB (90%)
Writing library : x264 core 146 r2538 121396c
Encoding settings : cabac=1 / ref=9 / deblock=1:-3:-3 / analyse=0x3:0x133 / me=umh / subme=11 / psy=1 / psy_rd=1.10:0.15 / mixed_ref=1 / me_range=48 / chroma_me=1 / trellis=2 / 8x8dct=1 / cqm=0 / deadzone=21,11 / fast_pskip=0 / chroma_qp_offset=-3 / threads=8 / lookahead_threads=2 / sliced_threads=0 / nr=0 / decimate=0 / interlaced=0 / bluray_compat=0 / constrained_intra=0 / bframes=10 / b_pyramid=2 / b_adapt=2 / b_bias=0 / direct=3 / weightb=1 / open_gop=0 / weightp=2 / keyint=240 / keyint_min=23 / scenecut=40 / intra_refresh=0 / rc_lookahead=60 / rc=crf / mbtree=0 / crf=18.5 / qcomp=0.60 / qpmin=0 / qpmax=69 / qpstep=4 / vbv_maxrate=40000 / vbv_bufsize=50000 / crf_max=0.0 / nal_hrd=none / filler=0 / ip_ratio=1.40 / pb_ratio=1.30 / aq=1:1.00
Default : No
Forced : No
Color range : Limited
Color primaries : BT.709
Transfer characteristics : BT.709
Matrix coefficients : BT.709
Audio #1
ID : 2
Format : AC-3
Format/Info : Audio Coding 3
Mode extension : CM (complete main)
Format settings, Endianness : Big
Codec ID : A_AC3
Duration : 2h 2mn
Bit rate mode : Constant
Bit rate : 160 Kbps
Channel(s) : 2 channels
Channel positions : Front: L R
Sampling rate : 48.0 KHz
Compression mode : Lossy
Stream size : 140 MiB (2%)
Title : NTV+
Language : Russian
Default : Yes
Forced : No
Audio #2
ID : 3
Format : AC-3
Format/Info : Audio Coding 3
Mode extension : CM (complete main)
Format settings, Endianness : Big
Codec ID : A_AC3
Duration : 2h 2mn
Bit rate mode : Constant
Bit rate : 160 Kbps
Channel(s) : 2 channels
Channel positions : Front: L R
Sampling rate : 48.0 KHz
Compression mode : Lossy
Stream size : 140 MiB (2%)
Title : 5th Channel
Language : Russian
Default : No
Forced : No
Audio #3
ID : 4
Format : AC-3
Format/Info : Audio Coding 3
Mode extension : CM (complete main)
Format settings, Endianness : Big
Codec ID : A_AC3
Duration : 2h 2mn
Bit rate mode : Constant
Bit rate : 448 Kbps
Channel(s) : 2 channels
Channel positions : Front: L R
Sampling rate : 48.0 KHz
Compression mode : Lossy
Stream size : 391 MiB (5%)
Language : English
Default : No
Forced : No
Menu
00:00:00.000 : :00:00:00.000
00:12:30.041 : :00:12:30.041
00:21:29.079 : :00:21:29.079
00:31:15.999 : :00:31:15.999
00:42:09.944 : :00:42:09.944
00:50:18.974 : :00:50:18.974
01:03:35.979 : :01:03:35.979
01:14:18.913 : :01:14:18.913
01:27:49.264 : :01:27:49.264
01:36:16.896 : :01:36:16.896
01:49:02.870 : :01:49:02.870
01:55:11.905 : :01:55:11.905

Скриншоты

Релиз от: Temperest
[Профиль] [ЛС]
Кто просматривает тему:

Показать сообщения:    

Текущее время: Сегодня 12:15

Часовой пояс: GMT



Вы не можете начинать темы
Вы не можете отвечать на сообщения
Вы не можете редактировать свои сообщения
Вы не можете удалять свои сообщения
Вы не можете голосовать в опросах
Вы не можете прикреплять файлы к сообщениям
Вы не можете скачивать файлы